<?xml version="1.0" standalone="no"?>
<!DOCTYPE svg PUBLIC "-//W3C//DTD SVG 1.1//EN" "http://www.w3.org/Graphics/SVG/1.1/DTD/svg11.dtd" >
<svg xmlns="http://www.w3.org/2000/svg" xmlns:xlink="http://www.w3.org/1999/xlink" version="1.1">
<metadata>
Created by FontForge 20160405 at Sun Mar  4 23:23:56 2018
 By www-data
Digitized data Copyright (c) 2011-2014, vernon adams.
</metadata>
<defs>
<font id="Muli" horiz-adv-x="1399" >
  <font-face 
    font-family="Muli"
    font-weight="400"
    font-stretch="normal"
    units-per-em="2048"
    panose-1="2 0 5 3 0 0 0 0 0 0"
    ascent="1638"
    descent="-410"
    x-height="1026"
    cap-height="1456"
    bbox="-255 -607 4034 2412"
    underline-thickness="0"
    underline-position="0"
    unicode-range="U+000D-FB04"
  />
<missing-glyph horiz-adv-x="748" 
d="M68 0v1365h544v-1365h-544zM136 68h408v1229h-408v-1229z" />
    <glyph glyph-name=".notdef" horiz-adv-x="748" 
d="M68 0v1365h544v-1365h-544zM136 68h408v1229h-408v-1229z" />
    <glyph glyph-name=".null" horiz-adv-x="0" 
 />
    <glyph glyph-name="uni000D" unicode="&#xd;" horiz-adv-x="480" 
 />
    <glyph glyph-name="space" unicode=" " horiz-adv-x="596" 
 />
    <glyph glyph-name="exclam" unicode="!" horiz-adv-x="582" 
d="M249 377l-55 1079h218l-55 -1079h-108zM211 0v220h186v-220h-186z" />
    <glyph glyph-name="quotedbl" unicode="&#x22;" horiz-adv-x="932" 
d="M583 955l-43 501h190l-33 -501h-114zM247 955l-42 501h189l-34 -501h-113z" />
    <glyph glyph-name="numbersign" unicode="#" horiz-adv-x="1300" 
d="M497 608h255l54 282h-252zM241 42l86 441h-249l10 125h263l53 282h-262l11 125h275l80 416h150l-80 -416h253l79 416h148l-81 -416h237l-10 -125h-250l-54 -282h252l-11 -125h-265l-86 -441h-147l84 441h-252l-87 -441h-147z" />
    <glyph glyph-name="dollar" unicode="$" horiz-adv-x="1197" 
d="M590 -203h85v184q92 7 168.5 36t134.5 78t90.5 123t32.5 166q0 89 -19.5 152.5t-69 117.5t-130.5 94.5t-207 78.5v493q95 -6 172 -40t124 -79l95 129q-27 26 -55.5 47t-75 44.5t-113 39t-147.5 20.5v147h-85v-146q-133 -5 -234.5 -48.5t-161.5 -130t-60 -205.5
q0 -173 95.5 -265t304.5 -152q10 -3 56 -16v-526q-77 2 -157.5 28t-131 54.5t-87.5 58.5l-85 -138q24 -23 64 -48.5t98 -51.5t137 -44t162 -20v-181zM675 144v494q31 -11 57 -22t47 -22t37.5 -22.5t29.5 -23.5t22.5 -26t16 -28t10.5 -31t5.5 -34.5t1.5 -38.5q0 -70 -25 -121
t-76 -82.5t-126 -42.5zM590 851q-79 22 -127 44.5t-76.5 53t-39 66t-10.5 89.5q0 96 68 150.5t185 64.5v-468z" />
    <glyph glyph-name="percent" unicode="%" horiz-adv-x="1869" 
d="M1414 -19q-163 0 -254.5 107.5t-91.5 282.5t93 284.5t256 109.5q162 0 252.5 -108.5t90.5 -284.5q0 -175 -92 -283t-254 -108zM1416 104q185 0 185 268q0 271 -184 271q-189 0 -189 -272q0 -267 188 -267zM440 0l845 1456h156l-847 -1456h-154zM455 692
q-165 0 -255.5 104t-90.5 285q0 180 92 287t256 107t254 -106t90 -287q0 -180 -91.5 -285t-254.5 -105zM456 814q185 0 185 269q0 270 -184 270q-188 0 -188 -271q0 -268 187 -268z" />
    <glyph glyph-name="ampersand" unicode="&#x26;" horiz-adv-x="1536" 
d="M595 920q205 127 205 255q0 75 -49 113t-114 38q-72 0 -118 -39.5t-46 -111.5q0 -135 122 -255zM627 138q109 0 188.5 39.5t152.5 115.5l-407 436q-56 -31 -94 -58.5t-74.5 -65.5t-54.5 -86t-18 -106q0 -121 85.5 -198t221.5 -77zM629 -24q-142 0 -254.5 51t-178.5 150.5
t-66 233.5q0 79 25.5 145t77 119t101 89.5t125.5 81.5q-82 91 -123 166t-41 167q0 141 95 219t240 78q67 0 127.5 -18t110.5 -52.5t79.5 -91.5t29.5 -129q0 -108 -77 -202t-198 -168l359 -392q60 98 94.5 226t34.5 254l170 -28q-5 -155 -52.5 -310t-127.5 -272
q151 -153 313 -193l-122 -109q-137 22 -296 183q-187 -198 -446 -198z" />
    <glyph glyph-name="quotesingle" unicode="'" horiz-adv-x="509" 
d="M199 936l-37 520h197l-28 -520h-132z" />
    <glyph glyph-name="parenleft" unicode="(" horiz-adv-x="635" 
d="M412 -173q-125 192 -199.5 406.5t-74.5 429.5q0 426 270 853h178q-264 -420 -264 -851q0 -202 71.5 -423.5t193.5 -414.5h-175z" />
    <glyph glyph-name="parenright" unicode=")" horiz-adv-x="635" 
d="M49 -193q265 419 265 852q0 201 -71.5 422t-193.5 415h175q125 -191 199.5 -406t74.5 -430q0 -428 -270 -853h-179z" />
    <glyph glyph-name="asterisk" unicode="*" horiz-adv-x="1112" 
d="M718 711l-162 263l-159 -258l-138 90l194 238l-270 89l55 142l253 -120l-30 302h170l-15 -302l235 120l68 -142l-263 -89l202 -246z" />
    <glyph glyph-name="plus" unicode="+" horiz-adv-x="1202" 
d="M514 103v415h-383v156h384v401h171v-401h386v-156h-386v-415h-172z" />
    <glyph glyph-name="comma" unicode="," horiz-adv-x="487" 
d="M72 -265l108 487h209l-167 -487h-150z" />
    <glyph glyph-name="hyphen" unicode="-" horiz-adv-x="679" 
d="M61 487v142h556v-142h-556z" />
    <glyph glyph-name="period" unicode="." horiz-adv-x="543" 
d="M151 0v225h235v-225h-235z" />
    <glyph glyph-name="slash" unicode="/" horiz-adv-x="910" 
d="M125 0l530 1456h171l-534 -1456h-167z" />
    <glyph glyph-name="zero" unicode="0" horiz-adv-x="1231" 
d="M620 -22q-160 0 -272.5 94t-168 262.5t-55.5 397.5q0 359 127 554.5t370 195.5q240 0 363 -197t123 -553q0 -351 -124 -552.5t-363 -201.5zM623 139q286 0 286 593q0 131 -15.5 235t-48.5 185t-89.5 125t-133.5 44q-80 0 -139 -44t-94 -124.5t-52 -185.5t-17 -235
q0 -182 29.5 -311t98.5 -205.5t175 -76.5z" />
    <glyph glyph-name="one" unicode="1" horiz-adv-x="1231" 
d="M282 0v150h281v1100q-100 -55 -297 -128v173q74 26 171.5 72.5t167.5 88.5h150v-1306h264v-150h-737z" />
    <glyph glyph-name="two" unicode="2" horiz-adv-x="1238" 
d="M599 1482q81 0 152 -20.5t125.5 -59.5t93.5 -92.5t59 -120.5t20 -143q0 -74 -19 -142.5t-58.5 -136t-88.5 -129t-121 -137.5l-324 -343h605v-158h-834v150l443 470q114 121 162.5 216t48.5 195q0 133 -71.5 211t-203.5 78q-43 0 -88.5 -8.5t-80.5 -20t-72 -28t-57.5 -28
t-42 -24.5t-22.5 -13l-62 149q1 0 19 11.5t36.5 21.5t49.5 25.5t66 28t76.5 24t90 18t98.5 6.5z" />
    <glyph glyph-name="three" unicode="3" horiz-adv-x="1231" 
d="M582 -22q-78 0 -152 13.5t-127.5 34t-80 33t-43.5 22.5l53 146q180 -88 333 -88q147 0 233.5 73t86.5 198q0 68 -26 120.5t-76 85.5t-120 50t-159 17h-8l-77 -1l-2 163h75q183 0 270.5 60.5t87.5 201.5q0 101 -83.5 157.5t-205.5 56.5q-201 0 -339 -132l-88 128
q84 84 192 124.5t257 40.5q122 0 224 -41.5t166.5 -128t64.5 -203.5q0 -125 -70 -219.5t-200 -122.5q143 -27 224.5 -125.5t81.5 -238.5q0 -129 -65.5 -227t-176.5 -148t-250 -50z" />
    <glyph glyph-name="four" unicode="4" horiz-adv-x="1231" 
d="M305 527h446v745q-65 -114 -135 -231.5t-172.5 -286t-138.5 -227.5zM752 0v385h-647v128l597 943h234v-929h217v-142h-218v-385h-183z" />
    <glyph glyph-name="five" unicode="5" horiz-adv-x="1231" 
d="M603 -23q-124 0 -238.5 42.5t-202.5 127.5l91 142q73 -76 164 -113t184 -37q140 0 225 89.5t85 240.5q0 130 -71.5 217t-194.5 87q-71 0 -134.5 -26.5t-93.5 -73.5l-180 17l4 766h781v-163h-606l-16 -454q44 50 115.5 75.5t151.5 25.5q194 0 317 -134.5t123 -340.5
q0 -223 -142.5 -355.5t-361.5 -132.5z" />
    <glyph glyph-name="six" unicode="6" horiz-adv-x="1231" 
d="M656 139q130 0 206 91t76 233q0 143 -71 232t-206 89q-136 0 -221 -82t-85 -199q0 -164 80 -264t221 -100zM656 -22q-130 0 -229 51.5t-161.5 147t-94 225.5t-31.5 292q0 164 35.5 305.5t104.5 250t178.5 170.5t248.5 62q210 0 342 -115l-65 -140q-119 94 -275 94
q-94 0 -166.5 -48t-115.5 -129t-65 -178.5t-22 -204.5q52 81 140 130.5t205 49.5q199 0 324.5 -129.5t125.5 -345.5q0 -212 -130.5 -350t-348.5 -138z" />
    <glyph glyph-name="seven" unicode="7" horiz-adv-x="1231" 
d="M354 0l522 1295h-705v161h921v-144l-532 -1312h-206z" />
    <glyph glyph-name="eight" unicode="8" horiz-adv-x="1232" 
d="M619 843q125 27 194.5 97.5t69.5 174.5q0 101 -76 159.5t-187 58.5q-112 0 -188 -58t-76 -162q0 -103 69.5 -173.5t193.5 -96.5zM619 131q132 0 212.5 65.5t80.5 187.5q0 110 -81 190t-210 108q-131 -28 -212 -107t-81 -193q0 -119 80.5 -185t210.5 -66zM620 -22
q-131 0 -238.5 45.5t-175 138.5t-67.5 218q0 134 78.5 233.5t219.5 149.5q-123 48 -194 136.5t-71 210.5q0 171 126.5 271.5t320.5 100.5q197 0 323 -101t126 -274q0 -123 -70 -211t-194 -133q138 -49 217 -151t79 -235q0 -124 -68 -216.5t-175.5 -137.5t-236.5 -45z" />
    <glyph glyph-name="nine" unicode="9" horiz-adv-x="1232" 
d="M597 692q136 0 219.5 81.5t83.5 210.5q0 66 -17.5 125.5t-52 107.5t-91.5 76t-130 28q-132 0 -208 -88.5t-76 -228.5t67.5 -226t204.5 -86zM559 -22q-175 0 -352 93l66 152q135 -84 273 -84q173 0 267.5 139t95.5 373q1 5 1 50q-46 -80 -132.5 -123.5t-200.5 -43.5
q-202 0 -324 128.5t-122 337.5t130 345.5t347 136.5q244 0 368 -182.5t124 -527.5q0 -375 -143.5 -584.5t-397.5 -209.5z" />
    <glyph glyph-name="colon" unicode=":" horiz-adv-x="541" 
d="M173 832v226h218v-226h-218zM173 1v226h218v-226h-218z" />
    <glyph glyph-name="semicolon" unicode=";" horiz-adv-x="543" 
d="M169 827v226h226v-226h-226zM96 -265l107 487h210l-167 -487h-150z" />
    <glyph glyph-name="less" unicode="&#x3c;" horiz-adv-x="1255" 
d="M1038 67l-933 467v96l937 442v-172l-705 -321l701 -341v-171z" />
    <glyph glyph-name="equal" unicode="=" horiz-adv-x="1290" 
d="M171 683v154h947v-154h-947zM172 292v153h948v-153h-948z" />
    <glyph glyph-name="greater" unicode="&#x3e;" horiz-adv-x="1256" 
d="M215 68v174l699 318l-694 343v172l933 -473v-98z" />
    <glyph glyph-name="question" unicode="?" horiz-adv-x="1058" 
d="M343 -4v221h187v-221h-187zM361 379v142q0 58 28 115t69.5 101t90.5 92.5t90.5 91t69.5 96t28 106.5q0 100 -69 148t-181 48q-81 0 -160.5 -24t-128.5 -50v166q59 29 144.5 48.5t165.5 19.5q189 0 304.5 -89.5t115.5 -259.5q0 -61 -23 -117.5t-60 -101t-81.5 -87.5
t-89 -83.5t-81.5 -80t-60 -87t-23 -95.5v-99h-149z" />
    <glyph glyph-name="at" unicode="@" horiz-adv-x="1768" 
d="M1097 822q0 86 -42 137t-115 51q-49 0 -94.5 -24t-80 -65t-60 -94t-39 -112.5t-13.5 -118.5q0 -86 45 -138t118 -52q76 0 141 58.5t102.5 154t37.5 203.5zM925 1142q55 0 100 -16t77 -50.5t44 -83.5l28 122h155l-108 -509q-24 -109 -24 -162q0 -34 19 -59t54 -25
q63 0 122.5 57t98.5 161t39 225q0 169 -81 296.5t-214.5 192t-297.5 64.5q-141 0 -263.5 -46t-214 -130.5t-144.5 -214.5t-53 -288q0 -154 53.5 -277.5t146.5 -202.5t214 -120.5t259 -41.5q139 0 270.5 41.5t225.5 118.5l71 -82q-95 -97 -249 -148.5t-328 -51.5
q-234 0 -418.5 91.5t-291.5 266.5t-107 407q0 181 65 332.5t177 253.5t262.5 158.5t320.5 56.5q154 0 288.5 -50.5t230.5 -139t151 -215.5t55 -275q0 -144 -52.5 -269t-139.5 -198t-186 -73q-92 0 -142 49.5t-50 139.5v15q-34 -85 -112 -140.5t-180 -55.5q-60 0 -115.5 23
t-100.5 65.5t-72 110t-27 149.5q0 110 38.5 209.5t101 168.5t142.5 109.5t162 40.5z" />
    <glyph glyph-name="A" unicode="A" 
d="M438 545h514q-127 359 -256 711q-130 -357 -258 -711zM31 0l565 1456h204l568 -1456h-209l-150 389h-623l-147 -389h-208z" />
    <glyph glyph-name="B" unicode="B" horiz-adv-x="1356" 
d="M393 840h253q322 0 322 238q0 123 -88 170t-266 47h-221v-455zM394 163h294q169 0 258.5 66t89.5 190q0 146 -85.5 204.5t-288.5 58.5h-268v-519zM202 0v1456h385q65 0 120.5 -3.5t116.5 -13t109.5 -25.5t94 -43.5t75.5 -64t48 -89t18 -116.5q0 -121 -60.5 -206
t-179.5 -118q147 -25 228.5 -121t81.5 -242q0 -180 -135 -297t-385 -117h-517z" />
    <glyph glyph-name="C" unicode="C" 
d="M824 -22q-145 0 -274 48.5t-228 139t-157 232.5t-58 318q0 170 54.5 314.5t149.5 243t225.5 153.5t280.5 55q275 0 458 -150l-76 -130q-161 119 -368 119q-156 0 -276 -79.5t-183.5 -216.5t-63.5 -307q0 -265 146.5 -422t378.5 -157q220 0 412 144l64 -152
q-209 -153 -485 -153z" />
    <glyph glyph-name="D" unicode="D" horiz-adv-x="1539" 
d="M202 0v1456h358q422 0 645 -179t223 -551q0 -348 -207 -537t-596 -189h-423zM393 161h242q292 0 441.5 147.5t149.5 417.5q0 291 -159.5 430t-488.5 139h-185v-1134z" />
    <glyph glyph-name="E" unicode="E" horiz-adv-x="1204" 
d="M202 0v1456h872v-161h-681v-458h643v-162h-643v-514h710v-161h-901z" />
    <glyph glyph-name="F" unicode="F" horiz-adv-x="1117" 
d="M202 0v1456h840v-161h-649v-458h604v-162h-604v-675h-191z" />
    <glyph glyph-name="G" unicode="G" horiz-adv-x="1527" 
d="M844 -22q-235 0 -402 90.5t-250.5 253t-83.5 382.5q0 224 94.5 401t266.5 277t392 100q283 0 479 -146l-77 -133q-173 118 -398 118q-166 0 -294 -79t-196.5 -217.5t-68.5 -312.5q0 -262 140 -417.5t406 -155.5q181 0 318 52v412h-368v163h558v-682q-232 -106 -516 -106z
" />
    <glyph glyph-name="H" unicode="H" horiz-adv-x="1559" 
d="M202 0v1456h192v-629h773v629h190v-1456h-189v666h-774v-666h-192z" />
    <glyph glyph-name="I" unicode="I" horiz-adv-x="602" 
d="M218 0v1456h191v-1456h-191z" />
    <glyph glyph-name="J" unicode="J" horiz-adv-x="786" 
d="M229 -326q-110 0 -236 42l27 150q105 -31 184 -31q111 0 152 65.5t41 219.5v1336h191v-1335q0 -231 -90 -339t-269 -108z" />
    <glyph glyph-name="K" unicode="K" horiz-adv-x="1296" 
d="M202 0v1456h191v-656l627 656h237l-673 -701l721 -755h-242l-670 692v-692h-191z" />
    <glyph glyph-name="L" unicode="L" horiz-adv-x="1109" 
d="M202 0v1456h191v-1295h677v-161h-868z" />
    <glyph glyph-name="M" unicode="M" horiz-adv-x="1923" 
d="M202 0v1456h232q25 -58 225 -513.5t303 -695.5q103 241 304.5 696t227.5 513h227v-1456h-182v1145q-98 -226 -285.5 -644.5t-223.5 -500.5h-137l-432 973l-75 180v-1153h-184z" />
    <glyph glyph-name="N" unicode="N" horiz-adv-x="1598" 
d="M202 0v1456h203l702 -1024l108 -170v1194h182v-1456h-204l-684 986l-128 200v-1186h-179z" />
    <glyph glyph-name="O" unicode="O" horiz-adv-x="1626" 
d="M816 -22q-330 0 -519.5 203t-189.5 548q0 223 83.5 392.5t245.5 265t382 95.5q321 0 511.5 -207.5t190.5 -545.5q0 -344 -188 -547.5t-516 -203.5zM814 139q244 0 371 157.5t127 432.5q0 269 -127.5 430.5t-368.5 161.5q-240 0 -372.5 -162.5t-132.5 -429.5
q0 -274 130 -432t373 -158z" />
    <glyph glyph-name="P" unicode="P" horiz-adv-x="1260" 
d="M393 821h265q173 0 256 52t83 183q0 49 -10 86.5t-31.5 64t-50 44t-70 27t-87 13.5t-105.5 4h-4h-3.5h-3.5h-3.5h-3.5h-232v-474zM202 0v1456h419q110 0 191.5 -9t156.5 -35t121.5 -69.5t74 -115.5t27.5 -170q0 -110 -36 -188t-106.5 -123t-165.5 -65.5t-223 -20.5h-268
v-660h-191z" />
    <glyph glyph-name="Q" unicode="Q" horiz-adv-x="1626" 
d="M814 139q244 0 371 157.5t127 432.5q0 269 -127.5 430.5t-368.5 161.5q-240 0 -372.5 -162.5t-132.5 -429.5q0 -274 130 -432t373 -158zM816 -22q-330 0 -519.5 203t-189.5 548q0 223 83.5 392.5t245.5 265t382 95.5q321 0 511.5 -207.5t190.5 -545.5q0 -266 -115 -451.5
t-325 -257.5q43 -73 111 -160t97 -119t47 -51l-112 -118q-8 8 -21.5 23t-53.5 60.5t-76.5 92t-81.5 111.5t-79 124q-23 -3 -46.5 -4t-48.5 -1z" />
    <glyph glyph-name="R" unicode="R" horiz-adv-x="1362" 
d="M392 808h271q145 0 225 57.5t80 192.5q0 55 -11.5 95.5t-33 67.5t-57 43.5t-79.5 23.5t-104 7h-3.5h-3.5h-4h-280v-487zM202 0v1456h466q90 0 161 -9.5t136.5 -35.5t108.5 -68.5t68.5 -111.5t25.5 -162q0 -137 -70 -229t-213 -122q82 -26 129.5 -90.5t96.5 -187.5
l171 -440h-204l-160 428q-34 92 -62.5 135t-74.5 63.5t-127 20.5h-261v-647h-191z" />
    <glyph glyph-name="S" unicode="S" horiz-adv-x="1214" 
d="M600 139q60 0 108.5 11t84.5 31.5t60.5 51t36.5 70t12 87.5q0 52 -11 87.5t-42 67.5t-84.5 57.5t-141.5 52.5q-9 3 -43.5 12.5t-45.5 13.5q-209 60 -304.5 152t-95.5 265q0 123 64 211t171.5 130.5t247.5 42.5q295 0 449 -152l-95 -129q-51 50 -138 85t-193 35
q-138 0 -220.5 -55t-82.5 -162q0 -72 19.5 -114t71 -73t155.5 -64q2 -1 37.5 -11t47.5 -13q128 -38 210.5 -79t132.5 -94.5t70 -117.5t20 -154q0 -101 -38.5 -179.5t-106.5 -127.5t-156 -74t-192 -25q-163 0 -291.5 53.5t-187.5 110.5l85 138q64 -51 168 -96t218 -45z" />
    <glyph glyph-name="T" unicode="T" horiz-adv-x="1145" 
d="M475 0v1295h-465v161h1124v-161h-468v-1295h-191z" />
    <glyph glyph-name="U" unicode="U" horiz-adv-x="1495" 
d="M744 -22q-574 0 -574 582v896h191v-900q0 -214 97 -315.5t288 -101.5q386 0 386 413v904h190v-894q0 -133 -32 -237t-99 -183.5t-180 -121.5t-267 -42z" />
    <glyph glyph-name="V" unicode="V" horiz-adv-x="1348" 
d="M576 0l-546 1456h213q18 -50 183.5 -518t252.5 -710q86 244 251.5 707t186.5 521h201l-542 -1456h-200z" />
    <glyph glyph-name="W" unicode="W" horiz-adv-x="2022" 
d="M440 0l-398 1456h205l257 -1004l54 -235q67 249 207 712.5t158 526.5h191q19 -62 159 -525.5t210 -710.5q55 247 169 707t131 529h197l-387 -1456h-223l-355 1199l-355 -1199h-220z" />
    <glyph glyph-name="X" unicode="X" horiz-adv-x="1302" 
d="M35 0l510 740l-488 716h231l374 -560l375 560h217l-484 -709l502 -747h-227l-390 589l-399 -589h-221z" />
    <glyph glyph-name="Y" unicode="Y" horiz-adv-x="1239" 
d="M522 0v575l-501 881h212l389 -713l391 713h213l-512 -878v-578h-192z" />
    <glyph glyph-name="Z" unicode="Z" horiz-adv-x="1185" 
d="M97 0v103l738 1192h-707v161h963v-99l-744 -1196h740v-161h-990z" />
    <glyph glyph-name="bracketleft" unicode="[" horiz-adv-x="660" 
d="M172 -227v1697h410v-139h-229v-1419h230v-139h-411z" />
    <glyph glyph-name="backslash" unicode="\" horiz-adv-x="834" 
d="M612 13l-559 1443h167l564 -1443h-172z" />
    <glyph glyph-name="bracketright" unicode="]" horiz-adv-x="660" 
d="M124 -227v139h227v1419h-229v139h410v-1697h-408z" />
    <glyph glyph-name="asciicircum" unicode="^" horiz-adv-x="1628" 
d="M271 563l482 893h115l489 -893h-178l-370 693l-357 -693h-181z" />
    <glyph glyph-name="underscore" unicode="_" horiz-adv-x="941" 
d="M-5 -268v145h951v-145h-951z" />
    <glyph glyph-name="grave" unicode="`" horiz-adv-x="597" 
d="M383 1173l-337 360h240l250 -360h-153z" />
    <glyph glyph-name="a" unicode="a" horiz-adv-x="1273" 
d="M615 128q153 0 233.5 106.5t80.5 286.5q0 170 -82 275.5t-234 105.5q-160 0 -243.5 -106t-83.5 -278q0 -173 84 -281.5t245 -108.5zM589 -22q-115 0 -208.5 43t-154 116.5t-93 170t-32.5 205.5q0 150 58.5 271.5t170.5 194.5t259 73q109 0 198.5 -53t135.5 -136v163h182
v-1026h-184v175q-44 -92 -131 -144.5t-201 -52.5z" />
    <glyph glyph-name="b" unicode="b" horiz-adv-x="1274" 
d="M679 128q146 0 223.5 107t77.5 289q0 169 -80 273.5t-222 104.5q-151 0 -240 -107t-89 -279q0 -174 88.5 -281t241.5 -107zM703 -22q-123 0 -216.5 56t-133.5 140l-1 -174h-188q7 233 7 270v1216h185v-634q37 81 128.5 140.5t221.5 59.5q213 0 339.5 -143.5t126.5 -382.5
q0 -247 -132 -397.5t-337 -150.5z" />
    <glyph glyph-name="c" unicode="c" horiz-adv-x="1064" 
d="M624 -22q-238 0 -380.5 148.5t-142.5 380.5q0 243 145 394t382 151q215 0 339 -122l-65 -122q-107 93 -261 93q-157 0 -253.5 -102.5t-96.5 -290.5q0 -174 93.5 -277t253.5 -103q155 0 280 96l58 -133q-146 -113 -352 -113z" />
    <glyph glyph-name="d" unicode="d" horiz-adv-x="1264" 
d="M597 128q151 0 233 107t82 287q0 169 -83 274.5t-229 105.5t-227 -106.5t-81 -281.5q0 -174 79 -280t226 -106zM570 -22q-206 0 -337.5 145.5t-131.5 386.5q0 158 56 279.5t165.5 192t257.5 70.5q118 0 206 -53t122 -127v614h185v-1220q1 -92 7 -266h-187l-4 174
q-31 -80 -119.5 -138t-219.5 -58z" />
    <glyph glyph-name="e" unicode="e" horiz-adv-x="1166" 
d="M296 613h589q-10 141 -82 217t-192 76q-126 0 -210.5 -78t-104.5 -215zM634 -22q-245 0 -389 145.5t-144 386.5q0 237 138.5 389.5t366.5 152.5q144 0 246.5 -67t152 -182t49.5 -267q0 -19 -3 -49h-760q3 -172 99 -265.5t254 -93.5q184 0 326 114l55 -136
q-165 -128 -391 -128z" />
    <glyph glyph-name="f" unicode="f" horiz-adv-x="727" 
d="M252 0v903h-183v123h183v84q0 53 2.5 91.5t9.5 77t20 65t33.5 51.5t49.5 40.5t69 27.5t91.5 17t117.5 5h47l-4 -143q-61 0 -101 -3.5t-69 -14.5t-44.5 -24.5t-24.5 -41t-11 -56t-2 -77.5v-99h245v-123h-245v-903h-184z" />
    <glyph glyph-name="g" unicode="g" horiz-adv-x="1267" 
d="M594 158q156 0 237 101.5t81 272.5q0 169 -80.5 269.5t-224.5 100.5q-147 0 -231 -106t-84 -278q0 -171 79 -265.5t223 -94.5zM571 -418q-202 0 -379 87l29 159q170 -97 343 -97q164 0 254 88t90 266v107q-43 -77 -124.5 -127.5t-200.5 -50.5q-213 0 -347.5 135.5
t-134.5 366.5q0 157 54.5 277t164.5 189.5t262 69.5q117 0 199 -50t127 -128l3 152h190q-11 -166 -11 -276v-610q0 -122 -30 -222t-91.5 -176t-162.5 -118t-235 -42z" />
    <glyph glyph-name="h" unicode="h" horiz-adv-x="1237" 
d="M166 0v1486h184v-621q46 84 143 135.5t206 51.5q96 0 170 -34t119 -93.5t68 -137t23 -168.5v-619h-185v614q0 151 -52 219.5t-168 68.5q-126 0 -225 -85t-99 -195v-622h-184z" />
    <glyph glyph-name="i" unicode="i" horiz-adv-x="520" 
d="M173 1285v171h182v-171h-182zM172 0v1026h183v-1026h-183z" />
    <glyph glyph-name="j" unicode="j" horiz-adv-x="503" 
d="M163 1277v179h183v-179h-183zM21 -423q-64 0 -127 12v151q52 -12 88 -12q94 0 140.5 75t46.5 233v990h174v-922q0 -56 -2.5 -102.5t-10.5 -102.5t-21.5 -100t-38 -87t-57.5 -71.5t-82 -46t-110 -17.5z" />
    <glyph glyph-name="k" unicode="k" horiz-adv-x="1111" 
d="M174 0v1486h184v-899l445 439h252l-520 -489l556 -537h-244l-489 485v-485h-184z" />
    <glyph glyph-name="l" unicode="l" horiz-adv-x="526" 
d="M177 0v1486h184v-1486h-184z" />
    <glyph glyph-name="m" unicode="m" horiz-adv-x="1881" 
d="M177 0v758q0 52 -11 268h191l2 -166q41 90 131 141t197 51q110 0 192.5 -58t119.5 -164q56 104 151.5 163t215.5 59q175 0 265.5 -111.5t90.5 -312.5v-628h-184v613q0 136 -46 212.5t-142 76.5q-123 0 -211.5 -89.5t-94.5 -220.5v-592h-184v629q0 123 -48 198t-153 75
q-121 0 -205 -81t-92 -196v-625h-185z" />
    <glyph glyph-name="n" unicode="n" horiz-adv-x="1244" 
d="M177 0v742q0 68 -2.5 139t-5.5 108l-3 37h190l2 -161q53 88 148.5 137.5t201.5 49.5q194 0 286 -117.5t92 -356.5v-578h-184v577q0 167 -50 246t-176 79q-116 0 -211 -78.5t-103 -180.5v-643h-185z" />
    <glyph glyph-name="o" unicode="o" horiz-adv-x="1258" 
d="M631 -22q-249 0 -389.5 148t-140.5 386q0 242 141.5 391t390.5 149q248 0 386 -148.5t138 -391.5q0 -238 -140 -386t-386 -148zM631 128q162 0 247.5 105t85.5 279q0 177 -86.5 283.5t-247.5 106.5q-162 0 -249 -106.5t-87 -283.5q0 -174 86.5 -279t250.5 -105z" />
    <glyph glyph-name="p" unicode="p" horiz-adv-x="1263" 
d="M669 127q145 0 223.5 107t78.5 282q0 174 -78.5 279.5t-222.5 105.5q-148 0 -231.5 -109.5t-83.5 -288.5q0 -170 82 -273t232 -103zM177 -428v1156q0 67 -11 298h193l1 -184q29 85 126 147t218 62q208 0 333 -148t125 -381q0 -237 -126.5 -391t-335.5 -154
q-122 0 -217 57t-123 132v-594h-183z" />
    <glyph glyph-name="q" unicode="q" horiz-adv-x="1259" 
d="M596 129q147 0 226.5 108t79.5 294q0 167 -79.5 268.5t-219.5 101.5q-144 0 -226 -106.5t-82 -284.5q0 -173 79.5 -277t221.5 -104zM899 -419v569q-47 -71 -130.5 -121.5t-194.5 -50.5q-216 0 -345 148t-129 386q0 242 130.5 391t351.5 149q102 0 185 -45t132 -123v142
h191q-7 -189 -7 -234v-1211h-184z" />
    <glyph glyph-name="r" unicode="r" horiz-adv-x="803" 
d="M179 0v774q0 34 -3.5 97t-6.5 109l-3 46h195l2 -160q93 184 274 184q57 0 104 -12l-1 -163q-59 16 -113 16q-118 0 -190 -82.5t-72 -237.5v-571h-186z" />
    <glyph glyph-name="s" unicode="s" horiz-adv-x="978" 
d="M518 -22q-133 0 -234.5 40t-157.5 84l51 137q57 -42 145.5 -76t180.5 -34q204 0 204 150q0 63 -46 94t-179 76l-88 30q-51 18 -86.5 34t-71.5 40.5t-58 53t-35.5 69t-13.5 91.5q0 73 30.5 129.5t83.5 89t117 49t138 16.5q203 0 342 -89l-51 -132q-135 72 -270 72
q-99 0 -153 -34t-54 -96q0 -56 32.5 -82.5t129.5 -61.5q87 -29 103 -35q63 -22 101 -38t81.5 -42.5t67 -55.5t39 -72.5t15.5 -98.5q0 -82 -31 -143.5t-84 -96t-115 -51.5t-133 -17z" />
    <glyph glyph-name="t" unicode="t" horiz-adv-x="803" 
d="M704 0h-85q-218 2 -298.5 78t-80.5 277v548h-197v123h201v264l180 53v-317h278v-123h-278v-558q0 -55 7.5 -89t23.5 -57.5t51 -34.5t79 -15.5t119 -4.5v-144z" />
    <glyph glyph-name="u" unicode="u" horiz-adv-x="1234" 
d="M555 -23q-197 0 -296 112.5t-99 302.5v634h183v-634q0 -132 62.5 -198.5t180.5 -66.5q135 0 211 77t76 199v623h184v-772q0 -137 9 -254h-187l-5 165q-43 -79 -122 -133.5t-197 -54.5z" />
    <glyph glyph-name="v" unicode="v" horiz-adv-x="1056" 
d="M441 0l-430 1026h201q36 -94 102.5 -263t121 -308.5t100.5 -264.5q43 127 95.5 266.5t118 307.5t100.5 262h197l-430 -1026h-176z" />
    <glyph glyph-name="w" unicode="w" horiz-adv-x="1636" 
d="M372 0l-341 1026h196q15 -50 106 -350.5t140 -459.5q53 159 153.5 456t119.5 354h179q18 -56 115 -354.5t149 -456.5q47 158 133.5 455t103.5 356h179l-341 -1026h-173q-13 39 -113 341.5t-152 461.5q-54 -160 -160.5 -459.5t-121.5 -343.5h-172z" />
    <glyph glyph-name="x" unicode="x" horiz-adv-x="1066" 
d="M45 0l389 512l-366 515l201 -1l264 -381l284 381h194l-375 -502l383 -524h-200l-284 392l-295 -392h-195z" />
    <glyph glyph-name="y" unicode="y" horiz-adv-x="1065" 
d="M209 -433l-75 126q249 83 309 263l17 52l-419 1018h193l317 -820l297 820h185l-414 -1080q-55 -145 -160.5 -244t-249.5 -135z" />
    <glyph glyph-name="z" unicode="z" horiz-adv-x="969" 
d="M104 0v100l536 777h-520v149h757v-98l-535 -780h551v-148h-789z" />
    <glyph glyph-name="braceleft" unicode="{" horiz-adv-x="789" 
d="M504 1130v-262q0 -93 -48 -155t-127 -89q81 -33 128 -102.5t47 -167.5v-256q0 -102 45 -139t150 -37v-143q-206 1 -293.5 78.5t-87.5 225.5v246q0 113 -43.5 170t-148.5 66v126q98 7 144 61.5t47 157.5v245q0 72 17.5 127t59 100t119 69t187.5 24v-143
q-111 -1 -153.5 -49t-42.5 -153z" />
    <glyph glyph-name="bar" unicode="|" horiz-adv-x="950" 
d="M387 -482v2017h176v-2017h-176z" />
    <glyph glyph-name="braceright" unicode="}" horiz-adv-x="787" 
d="M107 -221v144q112 0 154.5 48.5t42.5 153.5v262q0 93 48 155t127 89q-81 33 -128 102.5t-47 167.5v256q0 102 -45 139t-150 37v142q206 -1 293.5 -78t87.5 -225v-246q0 -113 43.5 -170t148.5 -66v-126q-98 -7 -144.5 -61.5t-47.5 -157.5v-245q0 -72 -17.5 -127
t-59 -100.5t-118.5 -69.5t-188 -24z" />
    <glyph glyph-name="asciitilde" unicode="~" horiz-adv-x="1253" 
d="M262 373l-135 64q24 114 98.5 184t196.5 70q80 0 260 -74q14 -5 48 -18.5t55.5 -21.5t47 -15.5t40.5 -7.5q56 0 96.5 51.5t57.5 126.5l147 -45q-29 -130 -106 -207.5t-195 -77.5q-68 0 -227 70q-2 1 -31 12.5t-40 16t-38 14t-42.5 13.5t-35 8t-33.5 4q-125 0 -164 -167z
" />
    <glyph glyph-name="uni007F" horiz-adv-x="1521" 
d="M188 0v1456h1145v-1456h-1145zM360 124h801v1206h-801v-1206z" />
    <glyph glyph-name="uni00A0" unicode="&#xa0;" horiz-adv-x="599" 
 />
    <glyph glyph-name="exclamdown" unicode="&#xa1;" horiz-adv-x="572" 
d="M194 1140h186v-220h-186v220zM232 763h108l55 -1079h-218z" />
    <glyph glyph-name="cent" unicode="&#xa2;" horiz-adv-x="1030" 
d="M669 -21v-192h-83v192q-147 8 -258 78.5t-169 187t-58 262.5q0 232 132.5 381t352.5 163v201h83v-201q188 -12 298 -121l-65 -122q-96 83 -233 92v-771q138 10 249 95l58 -133q-129 -101 -307 -112zM586 131v766q-135 -17 -215 -118t-80 -271q0 -159 79 -259.5
t216 -117.5z" />
    <glyph glyph-name="sterling" unicode="&#xa3;" horiz-adv-x="1203" 
d="M802 1323q-147 0 -212 -84.5t-65 -256.5v-162h363v-124h-361v-107q0 -151 -44.5 -263.5t-97.5 -168.5h657v-157h-887v150q84 62 133.5 175t49.5 266v105h-191v124h189v119q0 96 12 173t43 147.5t80.5 118t128 75t182.5 27.5q174 0 276 -75l-50 -140q-97 58 -206 58z" />
    <glyph glyph-name="currency" unicode="&#xa4;" horiz-adv-x="1218" 
d="M609 712q130 0 216 90t86 222q0 131 -86 220t-216 89t-216 -89t-86 -220q0 -132 86 -222t216 -90zM171 545l-51 51l187 187q-88 106 -88 243q0 144 95 252l-195 195l51 51l197 -196q105 83 243 83q135 0 243 -82l195 195l51 -51l-193 -193q96 -109 96 -254
q0 -139 -89 -245l186 -185l-51 -51l-186 186q-109 -90 -252 -90t-252 91z" />
    <glyph glyph-name="yen" unicode="&#xa5;" horiz-adv-x="1221" 
d="M178 281v116h331v161h-331v120h272l-442 778h212l389 -713l391 713h213l-454 -778h273v-120h-331v-161h332v-116h-332v-281h-192v281h-331z" />
    <glyph glyph-name="brokenbar" unicode="&#xa6;" horiz-adv-x="500" 
d="M197 648v887h160v-887h-160zM198 -482v881h160v-881h-160z" />
    <glyph glyph-name="section" unicode="&#xa7;" horiz-adv-x="1069" 
d="M611 530q48 30 80 75t32 96q0 18 -5 34t-11 28t-21 25t-24.5 20.5t-33 20.5t-35 18.5t-42 20t-43.5 20.5q-58 -26 -101.5 -68.5t-43.5 -92.5q0 -26 13 -49t29.5 -39.5t55.5 -37.5t65.5 -33.5t84.5 -37.5zM507 -75q-158 0 -302 56v150q158 -66 290 -66q103 0 163.5 42
t60.5 118q0 14 -3.5 26.5t-13 25t-18 22t-29.5 22.5t-35 21.5t-45.5 24t-50.5 25t-61 28.5q-33 16 -51 24q-111 52 -167.5 115.5t-56.5 154.5q0 77 56.5 143t139.5 101q-86 54 -128 108.5t-42 134.5q0 94 53.5 160t136.5 95.5t188 29.5q134 0 251 -40v-135q-110 41 -225 41
q-98 0 -161 -36t-63 -108q0 -54 52.5 -97t180.5 -103q58 -28 92.5 -46.5t75.5 -46.5t63 -54t37 -62t15 -78q0 -75 -50.5 -141.5t-128.5 -115.5q169 -89 169 -233q0 -99 -54 -170t-141.5 -103.5t-197.5 -32.5z" />
    <glyph glyph-name="dieresis" unicode="&#xa8;" horiz-adv-x="743" 
d="M480 1182v189h186v-189h-186zM77 1182v189h187v-189h-187z" />
    <glyph glyph-name="copyright" unicode="&#xa9;" horiz-adv-x="1728" 
d="M863 -25q-153 0 -292.5 59.5t-241 160.5t-161.5 240.5t-60 292.5t60 293t161.5 241t241 161t292.5 60q154 0 294 -60t241.5 -161t162 -241t60.5 -293t-60.5 -292.5t-162 -240.5t-241.5 -160.5t-294 -59.5zM865 75q130 0 248.5 52t203.5 139.5t135.5 207.5t50.5 251
q0 175 -85 326t-232.5 240.5t-320.5 89.5q-130 0 -249 -53t-204.5 -141.5t-136 -209.5t-50.5 -252t50.5 -251t136 -207.5t204 -139.5t249.5 -52zM886 286q-187 0 -310.5 120t-123.5 312q0 205 121 330t316 125q174 0 275 -101l-53 -102q-91 77 -213 77q-123 0 -205 -83
t-82 -245q0 -145 78.5 -226.5t203.5 -81.5q131 0 231 79l50 -109q-126 -95 -288 -95z" />
    <glyph glyph-name="ordfeminine" unicode="&#xaa;" horiz-adv-x="791" 
d="M348 867q88 0 143 55.5t55 144.5v22q-70 0 -101.5 -0.5t-77 -3.5t-64 -10t-40 -20t-28 -32.5t-6.5 -48.5q0 -51 32.5 -79t86.5 -28zM333 760q-106 0 -174 56.5t-68 152.5q0 99 71 154t210 55h174v36q0 82 -33.5 117.5t-108.5 35.5q-53 0 -111.5 -13.5t-90.5 -27.5
l-32 -13l-42 101q5 3 14 7.5t38.5 16t61 20.5t79 16t93.5 7q80 0 140 -23.5t99.5 -81.5t40.5 -147l-1 -312q0 -42 7 -134h-141l-8 95q-26 -51 -84 -84.5t-134 -33.5z" />
    <glyph glyph-name="guillemotleft" unicode="&#xab;" horiz-adv-x="1118" 
d="M832 170l-271 373l277 375h163l-249 -375l241 -373h-161zM403 170l-271 373l276 375h162l-247 -375l239 -373h-159z" />
    <glyph glyph-name="logicalnot" unicode="&#xac;" horiz-adv-x="1464" 
d="M1079 234v412h-882v156h1052v-568h-170z" />
    <glyph glyph-name="uni00AD" unicode="&#xad;" horiz-adv-x="679" 
d="M61 487v142h556v-142h-556z" />
    <glyph glyph-name="registered" unicode="&#xae;" horiz-adv-x="1728" 
d="M863 -25q-153 0 -292.5 59.5t-241 160.5t-161.5 240.5t-60 292.5t60 293t161.5 241t241 161t292.5 60q154 0 294 -60t241.5 -161t162 -241t60.5 -293t-60.5 -292.5t-162 -240.5t-241.5 -160.5t-294 -59.5zM865 75q130 0 248.5 52t203.5 139.5t135.5 207.5t50.5 251
q0 175 -85 326t-232.5 240.5t-320.5 89.5q-130 0 -249 -53t-204.5 -141.5t-136 -209.5t-50.5 -252t50.5 -251t136 -207.5t204 -139.5t249.5 -52zM706 777h117q128 0 184 28t56 109q0 91 -46 116t-195 25h-116v-278zM544 278v909h283q212 0 309 -65.5t97 -193.5
q0 -97 -46 -160t-162 -87l210 -403h-184l-184 382h-159v-382h-164z" />
    <glyph glyph-name="macron" unicode="&#xaf;" horiz-adv-x="720" 
d="M68 1242v124h584v-124h-584z" />
    <glyph glyph-name="degree" unicode="&#xb0;" horiz-adv-x="854" 
d="M427 854q-128 0 -216 87t-88 211q0 125 87.5 211.5t216.5 86.5t216.5 -86.5t87.5 -211.5q0 -124 -88 -211t-216 -87zM427 968q81 0 130.5 53.5t49.5 131.5q0 77 -49.5 130t-130.5 53q-80 0 -130 -53t-50 -130q0 -78 49.5 -131.5t130.5 -53.5z" />
    <glyph glyph-name="plusminus" unicode="&#xb1;" horiz-adv-x="1232" 
d="M184 0v132h873v-132h-873zM532 255v339h-338v155h336v340h170v-340h334v-155h-329v-339h-173z" />
    <glyph glyph-name="uni00B2" unicode="&#xb2;" horiz-adv-x="1114" 
d="M309 619v100l274 266q142 136 142 239q0 51 -36 81.5t-101 30.5q-62 0 -114 -32t-83 -92l-77 83q38 76 112.5 118.5t168.5 42.5q118 0 192.5 -62t74.5 -168q0 -81 -51 -160.5t-150 -171.5l-178 -166h376v-109h-550z" />
    <glyph glyph-name="uni00B3" unicode="&#xb3;" horiz-adv-x="1064" 
d="M540 601q-75 0 -145.5 24.5t-119.5 70.5l56 97q95 -78 202 -78q72 0 115.5 37.5t43.5 101.5q0 66 -51.5 100.5t-145.5 34.5h-73v113h68q84 0 132 30.5t48 90.5q0 58 -36.5 88t-100.5 30q-110 0 -203 -76l-56 92q49 46 121 72.5t146 26.5q113 0 188 -59.5t75 -165.5
q0 -62 -35 -111t-113 -69q83 -20 126.5 -74t43.5 -126q0 -116 -81 -183t-205 -67z" />
    <glyph glyph-name="acute" unicode="&#xb4;" horiz-adv-x="607" 
d="M73 1172l236 360h237l-319 -360h-154z" />
    <glyph glyph-name="mu" unicode="&#xb5;" horiz-adv-x="1197" 
d="M866 259q-111 -146 -298 -146q-123 0 -177.5 74.5t-54.5 220.5v674h-182v-1370h182v311q84 -43 207 -43q214 0 337 155l10 -135h157v1082h-181v-823z" />
    <glyph glyph-name="paragraph" unicode="&#xb6;" horiz-adv-x="1210" 
d="M483 -179v992q-150 4 -251.5 88.5t-101.5 231.5q0 75 22.5 131t62 92.5t99.5 59t129 31.5t156 9h450v-141h-104v-1494h-135v1494h-191v-1494h-136z" />
    <glyph glyph-name="periodcentered" unicode="&#xb7;" horiz-adv-x="509" 
d="M282 517v200h199v-200h-199z" />
    <glyph glyph-name="cedilla" unicode="&#xb8;" horiz-adv-x="529" 
d="M221 -447q-95 0 -176 28l13 97q21 -9 67.5 -18t86.5 -9h3q51 0 79.5 20t28.5 55q0 34 -39 60.5t-121 26.5h-22l32 196h97l-20 -128q105 -10 166.5 -52t61.5 -108q0 -40 -19.5 -72.5t-54 -53t-80.5 -31.5t-99 -11h-2h-2z" />
    <glyph glyph-name="uni00B9" unicode="&#xb9;" horiz-adv-x="1055" 
d="M328 618v118h150v555q-23 -12 -169 -66v127q29 9 100.5 39.5t88.5 41.5l110 8v-708h140v-115h-420z" />
    <glyph glyph-name="ordmasculine" unicode="&#xba;" horiz-adv-x="885" 
d="M447 752q-176 0 -272.5 100.5t-96.5 258.5q0 154 98 254.5t269 100.5q172 0 268.5 -101t96.5 -258q0 -152 -96.5 -253.5t-266.5 -101.5zM447 879q97 0 154 61.5t57 164.5q0 107 -57.5 169t-155.5 62q-96 0 -153.5 -61.5t-57.5 -165.5q0 -109 55.5 -169.5t157.5 -60.5z
" />
    <glyph glyph-name="guillemotright" unicode="&#xbb;" horiz-adv-x="1118" 
d="M565 168l247 375l-239 373h159l271 -373l-276 -375h-162zM135 168l247 375l-239 373h160l271 -373l-277 -375h-162z" />
    <glyph glyph-name="onequarter" unicode="&#xbc;" horiz-adv-x="1970" 
d="M1278 300h244v343zM492 0l902 1456h159l-899 -1456h-162zM1524 0v190h-378v95l369 515h146v-500h110v-110h-112v-190h-135zM212 631v113h166v573l-181 -64l1 118q18 5 105 41.5t99 43.5h118v-714h150v-111h-458z" />
    <glyph glyph-name="onehalf" unicode="&#xbd;" horiz-adv-x="2126" 
d="M210 631v113h166v573l-180 -64l1 118q18 5 105 41.5t99 43.5h117v-714h151v-111h-459zM461 0l902 1456h158l-898 -1456h-162zM1572 840q123 0 198.5 -65.5t75.5 -182.5q0 -40 -10 -75t-24 -62.5t-44 -60.5t-55.5 -57t-72.5 -65l-166 -148h367v-124h-558v126l272 251
q81 75 111 118.5t30 93.5q0 58 -33.5 91.5t-98.5 33.5q-59 0 -114.5 -31t-91.5 -86l-74 95q45 70 121 109t167 39z" />
    <glyph glyph-name="threequarters" unicode="&#xbe;" horiz-adv-x="2126" 
d="M1289 300h244v343zM528 0l903 1456h159l-899 -1456h-163zM1535 0v190h-378v95l369 515h146v-500h110v-110h-112v-190h-135zM474 603q-158 0 -267 94l57 95q101 -77 202 -77q69 0 113.5 40.5t44.5 103.5t-49.5 96.5t-138.5 33.5h-79v111h75q77 0 123.5 33.5t46.5 90.5
t-38.5 91t-101.5 34q-103 0 -201 -75l-56 88q53 45 125.5 70.5t146.5 25.5q115 0 190.5 -58.5t75.5 -163.5q0 -58 -36 -106.5t-108 -72.5q82 -24 124.5 -77.5t42.5 -122.5q0 -119 -83.5 -186.5t-208.5 -67.5z" />
    <glyph glyph-name="questiondown" unicode="&#xbf;" horiz-adv-x="1032" 
d="M695 1136v-221h-187v221h187zM677 753v-142q0 -58 -28 -115t-69.5 -101t-90.5 -92.5t-90.5 -91t-69.5 -96t-28 -106.5q0 -100 69 -148t181 -48q81 0 160.5 24t128.5 50v-166q-59 -29 -144.5 -48.5t-165.5 -19.5q-189 0 -304.5 89.5t-115.5 259.5q0 61 23 117.5t60 101
t81.5 87.5t89 83.5t81.5 80t60 87t23 95.5v99h149z" />
    <glyph glyph-name="Agrave" unicode="&#xc0;" 
d="M619 1603l-337 360h240l250 -360h-153zM438 545h514q-127 359 -256 711q-130 -357 -258 -711zM31 0l565 1456h204l568 -1456h-209l-150 389h-623l-147 -389h-208z" />
    <glyph glyph-name="Aacute" unicode="&#xc1;" 
d="M631 1602l236 360h237l-319 -360h-154zM438 545h514q-127 359 -256 711q-130 -357 -258 -711zM31 0l565 1456h204l568 -1456h-209l-150 389h-623l-147 -389h-208z" />
    <glyph glyph-name="Acircumflex" unicode="&#xc2;" 
d="M387 1584l234 347h162l236 -347h-156l-162 218l-164 -218h-150zM438 545h514q-127 359 -256 711q-130 -357 -258 -711zM31 0l565 1456h204l568 -1456h-209l-150 389h-623l-147 -389h-208z" />
    <glyph glyph-name="Atilde" unicode="&#xc3;" 
d="M854 1605q-38 0 -96.5 25t-112.5 50.5t-83 25.5q-61 0 -70 -93h-118q0 106 48.5 169.5t131.5 63.5q21 0 45 -5.5t46.5 -14.5t45 -20t44 -21.5t41 -19.5t37.5 -14.5t32 -5.5q32 0 45.5 22t14.5 77h122q0 -112 -44.5 -175.5t-128.5 -63.5zM438 545h514q-127 359 -256 711
q-130 -357 -258 -711zM31 0l565 1456h204l568 -1456h-209l-150 389h-623l-147 -389h-208z" />
    <glyph glyph-name="Adieresis" unicode="&#xc4;" 
d="M808 1612v189h186v-189h-186zM405 1612v189h187v-189h-187zM438 545h514q-127 359 -256 711q-130 -357 -258 -711zM31 0l565 1456h204l568 -1456h-209l-150 389h-623l-147 -389h-208z" />
    <glyph glyph-name="Aring" unicode="&#xc5;" 
d="M698 1567q-85 0 -143 56t-58 139q0 84 58 139.5t143 55.5t143 -55.5t58 -139.5q0 -83 -58 -139t-143 -56zM697 1652q44 0 75 32t31 78t-31 78t-75 32t-75 -32t-31 -78t31 -78t75 -32zM438 545h514q-127 359 -256 711q-130 -357 -258 -711zM31 0l565 1456h204l568 -1456
h-209l-150 389h-623l-147 -389h-208z" />
    <glyph glyph-name="AE" unicode="&#xc6;" horiz-adv-x="2062" 
d="M546 548h523l-55 743h-48zM25 0l844 1456h1018v-165h-689l39 -462h618v-158h-602l46 -508h613v-163h-794l-35 401h-612l-228 -401h-218z" />
    <glyph glyph-name="Ccedilla" unicode="&#xc7;" 
d="M812 -447q-95 0 -176 28l13 97q21 -9 67.5 -18t86.5 -9h3q51 0 79.5 20t28.5 55q0 34 -39 60.5t-121 26.5h-22l32 196h97l-20 -128q105 -10 166.5 -52t61.5 -108q0 -40 -19.5 -72.5t-54 -53t-80.5 -31.5t-99 -11h-2h-2zM824 -22q-145 0 -274 48.5t-228 139t-157 232.5
t-58 318q0 170 54.5 314.5t149.5 243t225.5 153.5t280.5 55q275 0 458 -150l-76 -130q-161 119 -368 119q-156 0 -276 -79.5t-183.5 -216.5t-63.5 -307q0 -265 146.5 -422t378.5 -157q220 0 412 144l64 -152q-209 -153 -485 -153z" />
    <glyph glyph-name="Egrave" unicode="&#xc8;" horiz-adv-x="1205" 
d="M565 1603l-337 360h240l250 -360h-153zM202 0v1456h872v-161h-681v-458h643v-162h-643v-514h710v-161h-901z" />
    <glyph glyph-name="Eacute" unicode="&#xc9;" horiz-adv-x="1205" 
d="M577 1602l236 360h237l-319 -360h-154zM202 0v1456h872v-161h-681v-458h643v-162h-643v-514h710v-161h-901z" />
    <glyph glyph-name="Ecircumflex" unicode="&#xca;" horiz-adv-x="1205" 
d="M334 1584l234 347h162l236 -347h-156l-162 218l-164 -218h-150zM202 0v1456h872v-161h-681v-458h643v-162h-643v-514h710v-161h-901z" />
    <glyph glyph-name="Edieresis" unicode="&#xcb;" horiz-adv-x="1205" 
d="M754 1612v189h186v-189h-186zM351 1612v189h187v-189h-187zM202 0v1456h872v-161h-681v-458h643v-162h-643v-514h710v-161h-901z" />
    <glyph glyph-name="Igrave" unicode="&#xcc;" horiz-adv-x="602" 
d="M241 1603l-337 360h240l250 -360h-153zM218 0v1456h191v-1456h-191z" />
    <glyph glyph-name="Iacute" unicode="&#xcd;" horiz-adv-x="602" 
d="M253 1602l236 360h237l-319 -360h-154zM218 0v1456h191v-1456h-191z" />
    <glyph glyph-name="Icircumflex" unicode="&#xce;" horiz-adv-x="602" 
d="M9 1584l234 347h162l236 -347h-156l-162 218l-164 -218h-150zM218 0v1456h191v-1456h-191z" />
    <glyph glyph-name="Idieresis" unicode="&#xcf;" horiz-adv-x="602" 
d="M430 1612v189h186v-189h-186zM27 1612v189h187v-189h-187zM218 0v1456h191v-1456h-191z" />
    <glyph glyph-name="Eth" unicode="&#xd0;" horiz-adv-x="1540" 
d="M45 704v142h556v-142h-556zM202 0v1456h358q422 0 645 -179t223 -551q0 -348 -207 -537t-596 -189h-423zM393 161h242q292 0 441.5 147.5t149.5 417.5q0 291 -159.5 430t-488.5 139h-185v-1134z" />
    <glyph glyph-name="Ntilde" unicode="&#xd1;" horiz-adv-x="1598" 
d="M965 1605q-38 0 -96.5 25t-112.5 50.5t-83 25.5q-61 0 -70 -93h-118q0 106 48.5 169.5t131.5 63.5q21 0 45 -5.5t46.5 -14.5t45 -20t44 -21.5t41 -19.5t37.5 -14.5t32 -5.5q32 0 45.5 22t14.5 77h122q0 -112 -44.5 -175.5t-128.5 -63.5zM202 0v1456h203l702 -1024
l108 -170v1194h182v-1456h-204l-684 986l-128 200v-1186h-179z" />
    <glyph glyph-name="Ograve" unicode="&#xd2;" horiz-adv-x="1626" 
d="M737 1603l-337 360h240l250 -360h-153zM816 -22q-330 0 -519.5 203t-189.5 548q0 223 83.5 392.5t245.5 265t382 95.5q321 0 511.5 -207.5t190.5 -545.5q0 -344 -188 -547.5t-516 -203.5zM814 139q244 0 371 157.5t127 432.5q0 269 -127.5 430.5t-368.5 161.5
q-240 0 -372.5 -162.5t-132.5 -429.5q0 -274 130 -432t373 -158z" />
    <glyph glyph-name="Oacute" unicode="&#xd3;" horiz-adv-x="1626" 
d="M749 1602l236 360h237l-319 -360h-154zM816 -22q-330 0 -519.5 203t-189.5 548q0 223 83.5 392.5t245.5 265t382 95.5q321 0 511.5 -207.5t190.5 -545.5q0 -344 -188 -547.5t-516 -203.5zM814 139q244 0 371 157.5t127 432.5q0 269 -127.5 430.5t-368.5 161.5
q-240 0 -372.5 -162.5t-132.5 -429.5q0 -274 130 -432t373 -158z" />
    <glyph glyph-name="Ocircumflex" unicode="&#xd4;" horiz-adv-x="1626" 
d="M506 1584l234 347h162l236 -347h-156l-162 218l-164 -218h-150zM816 -22q-330 0 -519.5 203t-189.5 548q0 223 83.5 392.5t245.5 265t382 95.5q321 0 511.5 -207.5t190.5 -545.5q0 -344 -188 -547.5t-516 -203.5zM814 139q244 0 371 157.5t127 432.5q0 269 -127.5 430.5
t-368.5 161.5q-240 0 -372.5 -162.5t-132.5 -429.5q0 -274 130 -432t373 -158z" />
    <glyph glyph-name="Otilde" unicode="&#xd5;" horiz-adv-x="1626" 
d="M973 1605q-38 0 -96.5 25t-112.5 50.5t-83 25.5q-61 0 -70 -93h-118q0 106 48.5 169.5t131.5 63.5q21 0 45 -5.5t46.5 -14.5t45 -20t44 -21.5t41 -19.5t37.5 -14.5t32 -5.5q32 0 45.5 22t14.5 77h122q0 -112 -44.5 -175.5t-128.5 -63.5zM816 -22q-330 0 -519.5 203
t-189.5 548q0 223 83.5 392.5t245.5 265t382 95.5q321 0 511.5 -207.5t190.5 -545.5q0 -344 -188 -547.5t-516 -203.5zM814 139q244 0 371 157.5t127 432.5q0 269 -127.5 430.5t-368.5 161.5q-240 0 -372.5 -162.5t-132.5 -429.5q0 -274 130 -432t373 -158z" />
    <glyph glyph-name="Odieresis" unicode="&#xd6;" horiz-adv-x="1626" 
d="M926 1612v189h186v-189h-186zM523 1612v189h187v-189h-187zM816 -22q-330 0 -519.5 203t-189.5 548q0 223 83.5 392.5t245.5 265t382 95.5q321 0 511.5 -207.5t190.5 -545.5q0 -344 -188 -547.5t-516 -203.5zM814 139q244 0 371 157.5t127 432.5q0 269 -127.5 430.5
t-368.5 161.5q-240 0 -372.5 -162.5t-132.5 -429.5q0 -274 130 -432t373 -158z" />
    <glyph glyph-name="multiply" unicode="&#xd7;" horiz-adv-x="1231" 
d="M335 145l-117 117l289 291l-289 289l117 118l290 -290l289 290l118 -118l-290 -289l290 -290l-118 -118l-289 288z" />
    <glyph glyph-name="Oslash" unicode="&#xd8;" horiz-adv-x="1626" 
d="M816 -22q328 0 516 203.5t188 547.5q0 140 -35 262t-101.5 216.5t-160.5 158.5l85 159l-92 47l-83 -155q-69 32 -148.5 48.5t-166.5 16.5q-220 0 -382 -95.5t-245.5 -265t-83.5 -392.5q0 -221 80.5 -387.5t230.5 -260.5l-88 -164l93 -48l88 165q136 -56 305 -56z
M1139 1208q85 -77 129 -200t44 -279q0 -275 -127 -432.5t-371 -157.5q-125 0 -223 44zM1053 1268l-551 -1030q-94 75 -142.5 200.5t-48.5 290.5q0 267 132.5 429.5t372.5 162.5q34 0 66.5 -3.5t62 -10.5t56.5 -16.5t52 -22.5z" />
    <glyph glyph-name="Ugrave" unicode="&#xd9;" horiz-adv-x="1495" 
d="M667 1603l-337 360h240l250 -360h-153zM744 -22q-574 0 -574 582v896h191v-900q0 -214 97 -315.5t288 -101.5q386 0 386 413v904h190v-894q0 -133 -32 -237t-99 -183.5t-180 -121.5t-267 -42z" />
    <glyph glyph-name="Uacute" unicode="&#xda;" horiz-adv-x="1495" 
d="M679 1602l236 360h237l-319 -360h-154zM744 -22q-574 0 -574 582v896h191v-900q0 -214 97 -315.5t288 -101.5q386 0 386 413v904h190v-894q0 -133 -32 -237t-99 -183.5t-180 -121.5t-267 -42z" />
    <glyph glyph-name="Ucircumflex" unicode="&#xdb;" horiz-adv-x="1495" 
d="M435 1584l234 347h162l236 -347h-156l-162 218l-164 -218h-150zM744 -22q-574 0 -574 582v896h191v-900q0 -214 97 -315.5t288 -101.5q386 0 386 413v904h190v-894q0 -133 -32 -237t-99 -183.5t-180 -121.5t-267 -42z" />
    <glyph glyph-name="Udieresis" unicode="&#xdc;" horiz-adv-x="1495" 
d="M856 1612v189h186v-189h-186zM453 1612v189h187v-189h-187zM744 -22q-574 0 -574 582v896h191v-900q0 -214 97 -315.5t288 -101.5q386 0 386 413v904h190v-894q0 -133 -32 -237t-99 -183.5t-180 -121.5t-267 -42z" />
    <glyph glyph-name="Yacute" unicode="&#xdd;" horiz-adv-x="1239" 
d="M572 1602l236 360h237l-319 -360h-154zM522 0v575l-501 881h212l389 -713l391 713h213l-512 -878v-578h-192z" />
    <glyph glyph-name="Thorn" unicode="&#xde;" horiz-adv-x="1280" 
d="M391 508h258q163 0 257 66.5t94 201.5q0 81 -26 136t-79 85t-121 42t-164 12h-219v-543zM200 0v1456h191v-244h207q110 0 194.5 -10t165 -38.5t132.5 -76t83.5 -126t31.5 -184.5q0 -90 -28 -162t-78.5 -121.5t-121.5 -83t-154.5 -48.5t-180.5 -15h-251v-347h-191z" />
    <glyph glyph-name="germandbls" unicode="&#xdf;" horiz-adv-x="1251" 
d="M761 124q99 0 159.5 53.5t60.5 153.5q0 137 -103 232.5t-322 187.5v140q146 50 207 117.5t61 165.5q0 83 -60.5 132t-161.5 49q-122 0 -188 -87.5t-66 -239.5v-1028h-181l-1 1026q0 231 115.5 354t321.5 123q188 0 300 -88.5t112 -233.5q0 -117 -60 -195.5t-186 -131.5
q-23 -13 -67 -27q31 -8 69 -22q406 -147 406 -462q0 -165 -108.5 -266t-269.5 -101q-169 0 -322 61l29 145q16 -7 34 -13t57 -18t82.5 -19.5t81.5 -7.5z" />
    <glyph glyph-name="agrave" unicode="&#xe0;" horiz-adv-x="1273" 
d="M513 1173l-337 360h240l250 -360h-153zM615 128q153 0 233.5 106.5t80.5 286.5q0 170 -82 275.5t-234 105.5q-160 0 -243.5 -106t-83.5 -278q0 -173 84 -281.5t245 -108.5zM589 -22q-115 0 -208.5 43t-154 116.5t-93 170t-32.5 205.5q0 150 58.5 271.5t170.5 194.5
t259 73q109 0 198.5 -53t135.5 -136v163h182v-1026h-184v175q-44 -92 -131 -144.5t-201 -52.5z" />
    <glyph glyph-name="aacute" unicode="&#xe1;" horiz-adv-x="1273" 
d="M525 1172l236 360h237l-319 -360h-154zM615 128q153 0 233.5 106.5t80.5 286.5q0 170 -82 275.5t-234 105.5q-160 0 -243.5 -106t-83.5 -278q0 -173 84 -281.5t245 -108.5zM589 -22q-115 0 -208.5 43t-154 116.5t-93 170t-32.5 205.5q0 150 58.5 271.5t170.5 194.5
t259 73q109 0 198.5 -53t135.5 -136v163h182v-1026h-184v175q-44 -92 -131 -144.5t-201 -52.5z" />
    <glyph glyph-name="acircumflex" unicode="&#xe2;" horiz-adv-x="1273" 
d="M281 1154l234 347h162l236 -347h-156l-162 218l-164 -218h-150zM615 128q153 0 233.5 106.5t80.5 286.5q0 170 -82 275.5t-234 105.5q-160 0 -243.5 -106t-83.5 -278q0 -173 84 -281.5t245 -108.5zM589 -22q-115 0 -208.5 43t-154 116.5t-93 170t-32.5 205.5
q0 150 58.5 271.5t170.5 194.5t259 73q109 0 198.5 -53t135.5 -136v163h182v-1026h-184v175q-44 -92 -131 -144.5t-201 -52.5z" />
    <glyph glyph-name="atilde" unicode="&#xe3;" horiz-adv-x="1273" 
d="M748 1175q-38 0 -96.5 25t-112.5 50.5t-83 25.5q-61 0 -70 -93h-118q0 106 48.5 169.5t131.5 63.5q21 0 45 -5.5t46.5 -14.5t45 -20t44 -21.5t41 -19.5t37.5 -14.5t32 -5.5q32 0 45.5 22t14.5 77h122q0 -112 -44.5 -175.5t-128.5 -63.5zM615 128q153 0 233.5 106.5
t80.5 286.5q0 170 -82 275.5t-234 105.5q-160 0 -243.5 -106t-83.5 -278q0 -173 84 -281.5t245 -108.5zM589 -22q-115 0 -208.5 43t-154 116.5t-93 170t-32.5 205.5q0 150 58.5 271.5t170.5 194.5t259 73q109 0 198.5 -53t135.5 -136v163h182v-1026h-184v175
q-44 -92 -131 -144.5t-201 -52.5z" />
    <glyph glyph-name="adieresis" unicode="&#xe4;" horiz-adv-x="1273" 
d="M702 1182v189h186v-189h-186zM299 1182v189h187v-189h-187zM615 128q153 0 233.5 106.5t80.5 286.5q0 170 -82 275.5t-234 105.5q-160 0 -243.5 -106t-83.5 -278q0 -173 84 -281.5t245 -108.5zM589 -22q-115 0 -208.5 43t-154 116.5t-93 170t-32.5 205.5
q0 150 58.5 271.5t170.5 194.5t259 73q109 0 198.5 -53t135.5 -136v163h182v-1026h-184v175q-44 -92 -131 -144.5t-201 -52.5z" />
    <glyph glyph-name="aring" unicode="&#xe5;" horiz-adv-x="1273" 
d="M592 1137q-85 0 -143 56t-58 139q0 84 58 139.5t143 55.5t143 -55.5t58 -139.5q0 -83 -58 -139t-143 -56zM591 1222q44 0 75 32t31 78t-31 78t-75 32t-75 -32t-31 -78t31 -78t75 -32zM615 128q153 0 233.5 106.5t80.5 286.5q0 170 -82 275.5t-234 105.5
q-160 0 -243.5 -106t-83.5 -278q0 -173 84 -281.5t245 -108.5zM589 -22q-115 0 -208.5 43t-154 116.5t-93 170t-32.5 205.5q0 150 58.5 271.5t170.5 194.5t259 73q109 0 198.5 -53t135.5 -136v163h182v-1026h-184v175q-44 -92 -131 -144.5t-201 -52.5z" />
    <glyph glyph-name="ae" unicode="&#xe6;" horiz-adv-x="1791" 
d="M978 612h553l-2 16q-12 123 -82 200t-185 77q-122 0 -195.5 -84.5t-88.5 -208.5zM482 126q80 0 141 30t96.5 81.5t53 114t18.5 133.5h-153q-83 0 -146.5 -9t-115.5 -29.5t-79.5 -59t-27.5 -93.5q0 -86 60 -127t153 -41zM1285 -22q-139 0 -245.5 66t-158.5 182
q-52 -111 -160.5 -180.5t-252.5 -69.5q-172 0 -277 82.5t-105 226.5q0 70 19.5 123.5t60 89.5t92.5 59.5t128 36t153.5 17t181.5 4.5h68q0 131 -67 210t-191 79q-147 0 -322 -82l-55 130q182 101 403 101q71 0 138 -23.5t122.5 -73t80.5 -116.5q57 99 150 156t210 57
q139 0 238 -68t148 -186t49 -276l-2 -37h-714v-27q8 -228 163 -301q66 -30 153 -30q37 0 75 6t68 16t58 21.5t48 23.5t35.5 22t22.5 16l8 6l54 -134q-6 -5 -16.5 -13.5t-47 -30.5t-77.5 -39t-105 -30.5t-131 -13.5z" />
    <glyph glyph-name="ccedilla" unicode="&#xe7;" horiz-adv-x="1064" 
d="M623 -447q-95 0 -176 28l13 97q21 -9 67.5 -18t86.5 -9h3q51 0 79.5 20t28.5 55q0 34 -39 60.5t-121 26.5h-22l32 196h97l-20 -128q105 -10 166.5 -52t61.5 -108q0 -40 -19.5 -72.5t-54 -53t-80.5 -31.5t-99 -11h-2h-2zM624 -22q-238 0 -380.5 148.5t-142.5 380.5
q0 243 145 394t382 151q215 0 339 -122l-65 -122q-107 93 -261 93q-157 0 -253.5 -102.5t-96.5 -290.5q0 -174 93.5 -277t253.5 -103q155 0 280 96l58 -133q-146 -113 -352 -113z" />
    <glyph glyph-name="egrave" unicode="&#xe8;" horiz-adv-x="1166" 
d="M511 1173l-337 360h240l250 -360h-153zM296 613h589q-10 141 -82 217t-192 76q-126 0 -210.5 -78t-104.5 -215zM634 -22q-245 0 -389 145.5t-144 386.5q0 237 138.5 389.5t366.5 152.5q144 0 246.5 -67t152 -182t49.5 -267q0 -19 -3 -49h-760q3 -172 99 -265.5t254 -93.5
q184 0 326 114l55 -136q-165 -128 -391 -128z" />
    <glyph glyph-name="eacute" unicode="&#xe9;" horiz-adv-x="1166" 
d="M296 613h589q-10 141 -82 217t-192 76q-126 0 -210.5 -78t-104.5 -215zM634 -22q-245 0 -389 145.5t-144 386.5q0 237 138.5 389.5t366.5 152.5q144 0 246.5 -67t152 -182t49.5 -267q0 -19 -3 -49h-760q3 -172 99 -265.5t254 -93.5q184 0 326 114l55 -136
q-165 -128 -391 -128zM523 1172l236 360h237l-319 -360h-154z" />
    <glyph glyph-name="ecircumflex" unicode="&#xea;" horiz-adv-x="1166" 
d="M296 613h589q-10 141 -82 217t-192 76q-126 0 -210.5 -78t-104.5 -215zM634 -22q-245 0 -389 145.5t-144 386.5q0 237 138.5 389.5t366.5 152.5q144 0 246.5 -67t152 -182t49.5 -267q0 -19 -3 -49h-760q3 -172 99 -265.5t254 -93.5q184 0 326 114l55 -136
q-165 -128 -391 -128zM279 1154l234 347h162l236 -347h-156l-162 218l-164 -218h-150z" />
    <glyph glyph-name="edieresis" unicode="&#xeb;" horiz-adv-x="1166" 
d="M296 613h589q-10 141 -82 217t-192 76q-126 0 -210.5 -78t-104.5 -215zM634 -22q-245 0 -389 145.5t-144 386.5q0 237 138.5 389.5t366.5 152.5q144 0 246.5 -67t152 -182t49.5 -267q0 -19 -3 -49h-760q3 -172 99 -265.5t254 -93.5q184 0 326 114l55 -136
q-165 -128 -391 -128zM700 1182v189h186v-189h-186zM297 1182v189h187v-189h-187z" />
    <glyph glyph-name="igrave" unicode="&#xec;" horiz-adv-x="534" 
d="M188 1173l-337 360h240l250 -360h-153zM177 0l-1 1026h185l1 -1026h-185z" />
    <glyph glyph-name="iacute" unicode="&#xed;" horiz-adv-x="534" 
d="M177 0l-1 1026h185l1 -1026h-185zM200 1172l236 360h237l-319 -360h-154z" />
    <glyph glyph-name="icircumflex" unicode="&#xee;" horiz-adv-x="534" 
d="M177 0l-1 1026h185l1 -1026h-185zM-44 1154l234 347h162l236 -347h-156l-162 218l-164 -218h-150z" />
    <glyph glyph-name="idieresis" unicode="&#xef;" horiz-adv-x="534" 
d="M177 0l-1 1026h185l1 -1026h-185zM377 1182v189h186v-189h-186zM-26 1182v189h187v-189h-187z" />
    <glyph glyph-name="eth" unicode="&#xf0;" horiz-adv-x="1223" 
d="M601 138q139 0 220.5 92.5t81.5 244.5q0 121 -91.5 199t-215.5 78q-133 0 -215 -80.5t-82 -219.5q0 -143 85 -228.5t217 -85.5zM597 -22q-222 0 -356 135.5t-134 340.5q0 200 136 325.5t349 125.5q117 0 206.5 -53t128.5 -126q-3 90 -68.5 239t-176.5 246l-221 -142
l-66 102l186 119q-146 97 -313 137l71 125q204 -46 379 -175l216 139l66 -102l-185 -118q290 -271 290 -673q0 -310 -132.5 -477.5t-375.5 -167.5z" />
    <glyph glyph-name="ntilde" unicode="&#xf1;" horiz-adv-x="1244" 
d="M840 1175q-38 0 -96.5 25t-112.5 50.5t-83 25.5q-61 0 -70 -93h-118q0 106 48.5 169.5t131.5 63.5q21 0 45 -5.5t46.5 -14.5t45 -20t44 -21.5t41 -19.5t37.5 -14.5t32 -5.5q32 0 45.5 22t14.5 77h122q0 -112 -44.5 -175.5t-128.5 -63.5zM177 0v742q0 68 -2.5 139
t-5.5 108l-3 37h190l2 -161q53 88 148.5 137.5t201.5 49.5q194 0 286 -117.5t92 -356.5v-578h-184v577q0 167 -50 246t-176 79q-116 0 -211 -78.5t-103 -180.5v-643h-185z" />
    <glyph glyph-name="ograve" unicode="&#xf2;" horiz-adv-x="1258" 
d="M631 -22q-249 0 -389.5 148t-140.5 386q0 242 141.5 391t390.5 149q248 0 386 -148.5t138 -391.5q0 -238 -140 -386t-386 -148zM631 128q162 0 247.5 105t85.5 279q0 177 -86.5 283.5t-247.5 106.5q-162 0 -249 -106.5t-87 -283.5q0 -174 86.5 -279t250.5 -105zM553 1173
l-337 360h240l250 -360h-153z" />
    <glyph glyph-name="oacute" unicode="&#xf3;" horiz-adv-x="1258" 
d="M631 -22q-249 0 -389.5 148t-140.5 386q0 242 141.5 391t390.5 149q248 0 386 -148.5t138 -391.5q0 -238 -140 -386t-386 -148zM631 128q162 0 247.5 105t85.5 279q0 177 -86.5 283.5t-247.5 106.5q-162 0 -249 -106.5t-87 -283.5q0 -174 86.5 -279t250.5 -105zM565 1172
l236 360h237l-319 -360h-154z" />
    <glyph glyph-name="ocircumflex" unicode="&#xf4;" horiz-adv-x="1258" 
d="M631 -22q-249 0 -389.5 148t-140.5 386q0 242 141.5 391t390.5 149q248 0 386 -148.5t138 -391.5q0 -238 -140 -386t-386 -148zM631 128q162 0 247.5 105t85.5 279q0 177 -86.5 283.5t-247.5 106.5q-162 0 -249 -106.5t-87 -283.5q0 -174 86.5 -279t250.5 -105zM321 1154
l234 347h162l236 -347h-156l-162 218l-164 -218h-150z" />
    <glyph glyph-name="otilde" unicode="&#xf5;" horiz-adv-x="1258" 
d="M789 1175q-38 0 -96.5 25t-112.5 50.5t-83 25.5q-61 0 -70 -93h-118q0 106 48.5 169.5t131.5 63.5q21 0 45 -5.5t46.5 -14.5t45 -20t44 -21.5t41 -19.5t37.5 -14.5t32 -5.5q32 0 45.5 22t14.5 77h122q0 -112 -44.5 -175.5t-128.5 -63.5zM631 -22q-249 0 -389.5 148
t-140.5 386q0 242 141.5 391t390.5 149q248 0 386 -148.5t138 -391.5q0 -238 -140 -386t-386 -148zM631 128q162 0 247.5 105t85.5 279q0 177 -86.5 283.5t-247.5 106.5q-162 0 -249 -106.5t-87 -283.5q0 -174 86.5 -279t250.5 -105z" />
    <glyph glyph-name="odieresis" unicode="&#xf6;" horiz-adv-x="1258" 
d="M631 -22q-249 0 -389.5 148t-140.5 386q0 242 141.5 391t390.5 149q248 0 386 -148.5t138 -391.5q0 -238 -140 -386t-386 -148zM631 128q162 0 247.5 105t85.5 279q0 177 -86.5 283.5t-247.5 106.5q-162 0 -249 -106.5t-87 -283.5q0 -174 86.5 -279t250.5 -105zM742 1182
v189h186v-189h-186zM339 1182v189h187v-189h-187z" />
    <glyph glyph-name="divide" unicode="&#xf7;" horiz-adv-x="1286" 
d="M524 865v225h237v-225h-237zM157 476v156h965v-156h-965zM525 11v226h237v-226h-237z" />
    <glyph glyph-name="oslash" unicode="&#xf8;" horiz-adv-x="1254" 
d="M631 -22q246 0 386 148t140 386q0 83 -17 156.5t-49.5 135.5t-82 110.5t-112.5 80.5l88 194l-88 38l-89 -198q-40 12 -83.5 17.5t-90.5 5.5q-249 0 -390.5 -149t-141.5 -391q0 -161 66.5 -284.5t190.5 -188.5l-97 -215l87 -38l99 218q84 -26 184 -26zM827 843
q67 -50 102 -135t35 -196q0 -174 -85.5 -279t-247.5 -105q-33 0 -63 4.5t-57 13.5zM742 886l-315 -696q-66 49 -99.5 132t-33.5 190q0 177 87 283.5t249 106.5q60 0 112 -16z" />
    <glyph glyph-name="ugrave" unicode="&#xf9;" horiz-adv-x="1235" 
d="M555 -23q-197 0 -296 112.5t-99 302.5v634h183v-634q0 -132 62.5 -198.5t180.5 -66.5q135 0 211 77t76 199v623h184v-772q0 -137 9 -254h-187l-5 165q-43 -79 -122 -133.5t-197 -54.5zM528 1173l-337 360h240l250 -360h-153z" />
    <glyph glyph-name="uacute" unicode="&#xfa;" horiz-adv-x="1235" 
d="M555 -23q-197 0 -296 112.5t-99 302.5v634h183v-634q0 -132 62.5 -198.5t180.5 -66.5q135 0 211 77t76 199v623h184v-772q0 -137 9 -254h-187l-5 165q-43 -79 -122 -133.5t-197 -54.5zM540 1172l236 360h237l-319 -360h-154z" />
    <glyph glyph-name="ucircumflex" unicode="&#xfb;" horiz-adv-x="1235" 
d="M555 -23q-197 0 -296 112.5t-99 302.5v634h183v-634q0 -132 62.5 -198.5t180.5 -66.5q135 0 211 77t76 199v623h184v-772q0 -137 9 -254h-187l-5 165q-43 -79 -122 -133.5t-197 -54.5zM296 1154l234 347h162l236 -347h-156l-162 218l-164 -218h-150z" />
    <glyph glyph-name="udieresis" unicode="&#xfc;" horiz-adv-x="1235" 
d="M555 -23q-197 0 -296 112.5t-99 302.5v634h183v-634q0 -132 62.5 -198.5t180.5 -66.5q135 0 211 77t76 199v623h184v-772q0 -137 9 -254h-187l-5 165q-43 -79 -122 -133.5t-197 -54.5zM717 1182v189h186v-189h-186zM314 1182v189h187v-189h-187z" />
    <glyph glyph-name="yacute" unicode="&#xfd;" horiz-adv-x="1065" 
d="M209 -433l-75 126q249 83 309 263l17 52l-419 1018h193l317 -820l297 820h185l-414 -1080q-55 -145 -160.5 -244t-249.5 -135zM482 1172l236 360h237l-319 -360h-154z" />
    <glyph glyph-name="thorn" unicode="&#xfe;" horiz-adv-x="1236" 
d="M639 126q99 0 168.5 54t101.5 141t32 198q0 168 -73.5 274.5t-223.5 106.5q-83 0 -145 -33t-96.5 -91t-51 -127t-16.5 -151q0 -167 79.5 -269.5t224.5 -102.5zM154 -419v1877h183v-579q46 80 134 126t194 46q152 0 260.5 -71t160 -188.5t51.5 -268.5q0 -112 -30.5 -210
t-88 -173t-148.5 -118.5t-205 -43.5q-104 0 -192 41t-136 119v-557h-183z" />
    <glyph glyph-name="ydieresis" unicode="&#xff;" horiz-adv-x="1065" 
d="M209 -433l-75 126q249 83 309 263l17 52l-419 1018h193l317 -820l297 820h185l-414 -1080q-55 -145 -160.5 -244t-249.5 -135zM659 1182v189h186v-189h-186zM256 1182v189h187v-189h-187z" />
    <glyph glyph-name="Amacron" unicode="&#x100;" 
d="M426 1672v124h584v-124h-584zM438 545h514q-127 359 -256 711q-130 -357 -258 -711zM31 0l565 1456h204l568 -1456h-209l-150 389h-623l-147 -389h-208z" />
    <glyph glyph-name="amacron" unicode="&#x101;" horiz-adv-x="1273" 
d="M320 1242v124h584v-124h-584zM615 128q153 0 233.5 106.5t80.5 286.5q0 170 -82 275.5t-234 105.5q-160 0 -243.5 -106t-83.5 -278q0 -173 84 -281.5t245 -108.5zM589 -22q-115 0 -208.5 43t-154 116.5t-93 170t-32.5 205.5q0 150 58.5 271.5t170.5 194.5t259 73
q109 0 198.5 -53t135.5 -136v163h182v-1026h-184v175q-44 -92 -131 -144.5t-201 -52.5z" />
    <glyph glyph-name="Abreve" unicode="&#x102;" 
d="M694 1610q-130 0 -199.5 63t-78.5 197h131q5 -70 42 -99t105 -29q65 0 101 29.5t43 98.5h129q-17 -260 -273 -260zM438 545h514q-127 359 -256 711q-130 -357 -258 -711zM31 0l565 1456h204l568 -1456h-209l-150 389h-623l-147 -389h-208z" />
    <glyph glyph-name="abreve" unicode="&#x103;" horiz-adv-x="1273" 
d="M588 1180q-130 0 -199.5 63t-78.5 197h131q5 -70 42 -99t105 -29q65 0 101 29.5t43 98.5h129q-17 -260 -273 -260zM615 128q153 0 233.5 106.5t80.5 286.5q0 170 -82 275.5t-234 105.5q-160 0 -243.5 -106t-83.5 -278q0 -173 84 -281.5t245 -108.5zM589 -22
q-115 0 -208.5 43t-154 116.5t-93 170t-32.5 205.5q0 150 58.5 271.5t170.5 194.5t259 73q109 0 198.5 -53t135.5 -136v163h182v-1026h-184v175q-44 -92 -131 -144.5t-201 -52.5z" />
    <glyph glyph-name="Aogonek" unicode="&#x104;" 
d="M1255 -424q-100 0 -166.5 45.5t-66.5 128.5q0 79 65 149t152 116l105 -5q-69 -45 -115.5 -112.5t-46.5 -118.5q0 -41 28.5 -63.5t85.5 -22.5q50 0 133 23v-112q-89 -28 -174 -28zM438 545h514q-127 359 -256 711q-130 -357 -258 -711zM31 0l565 1456h204l568 -1456h-209
l-150 389h-623l-147 -389h-208z" />
    <glyph glyph-name="aogonek" unicode="&#x105;" horiz-adv-x="1273" 
d="M996 -424q-100 0 -166.5 45.5t-66.5 128.5q0 79 65 149t152 116l105 -5q-69 -45 -115.5 -112.5t-46.5 -118.5q0 -41 28.5 -63.5t85.5 -22.5q50 0 133 23v-112q-89 -28 -174 -28zM615 128q153 0 233.5 106.5t80.5 286.5q0 170 -82 275.5t-234 105.5q-160 0 -243.5 -106
t-83.5 -278q0 -173 84 -281.5t245 -108.5zM589 -22q-115 0 -208.5 43t-154 116.5t-93 170t-32.5 205.5q0 150 58.5 271.5t170.5 194.5t259 73q109 0 198.5 -53t135.5 -136v163h182v-1026h-184v175q-44 -92 -131 -144.5t-201 -52.5z" />
    <glyph glyph-name="Cacute" unicode="&#x106;" 
d="M747 1602l236 360h237l-319 -360h-154zM824 -22q-145 0 -274 48.5t-228 139t-157 232.5t-58 318q0 170 54.5 314.5t149.5 243t225.5 153.5t280.5 55q275 0 458 -150l-76 -130q-161 119 -368 119q-156 0 -276 -79.5t-183.5 -216.5t-63.5 -307q0 -265 146.5 -422
t378.5 -157q220 0 412 144l64 -152q-209 -153 -485 -153z" />
    <glyph glyph-name="cacute" unicode="&#x107;" horiz-adv-x="1064" 
d="M624 -22q-238 0 -380.5 148.5t-142.5 380.5q0 243 145 394t382 151q215 0 339 -122l-65 -122q-107 93 -261 93q-157 0 -253.5 -102.5t-96.5 -290.5q0 -174 93.5 -277t253.5 -103q155 0 280 96l58 -133q-146 -113 -352 -113zM534 1172l236 360h237l-319 -360h-154z" />
    <glyph glyph-name="Ccircumflex" unicode="&#x108;" 
d="M503 1584l234 347h162l236 -347h-156l-162 218l-164 -218h-150zM824 -22q-145 0 -274 48.5t-228 139t-157 232.5t-58 318q0 170 54.5 314.5t149.5 243t225.5 153.5t280.5 55q275 0 458 -150l-76 -130q-161 119 -368 119q-156 0 -276 -79.5t-183.5 -216.5t-63.5 -307
q0 -265 146.5 -422t378.5 -157q220 0 412 144l64 -152q-209 -153 -485 -153z" />
    <glyph glyph-name="ccircumflex" unicode="&#x109;" horiz-adv-x="1064" 
d="M290 1154l234 347h162l236 -347h-156l-162 218l-164 -218h-150zM624 -22q-238 0 -380.5 148.5t-142.5 380.5q0 243 145 394t382 151q215 0 339 -122l-65 -122q-107 93 -261 93q-157 0 -253.5 -102.5t-96.5 -290.5q0 -174 93.5 -277t253.5 -103q155 0 280 96l58 -133
q-146 -113 -352 -113z" />
    <glyph glyph-name="Cdotaccent" unicode="&#x10a;" 
d="M718 1686v182h188v-182h-188zM824 -22q-145 0 -274 48.5t-228 139t-157 232.5t-58 318q0 170 54.5 314.5t149.5 243t225.5 153.5t280.5 55q275 0 458 -150l-76 -130q-161 119 -368 119q-156 0 -276 -79.5t-183.5 -216.5t-63.5 -307q0 -265 146.5 -422t378.5 -157
q220 0 412 144l64 -152q-209 -153 -485 -153z" />
    <glyph glyph-name="cdotaccent" unicode="&#x10b;" horiz-adv-x="1064" 
d="M505 1256v182h188v-182h-188zM624 -22q-238 0 -380.5 148.5t-142.5 380.5q0 243 145 394t382 151q215 0 339 -122l-65 -122q-107 93 -261 93q-157 0 -253.5 -102.5t-96.5 -290.5q0 -174 93.5 -277t253.5 -103q155 0 280 96l58 -133q-146 -113 -352 -113z" />
    <glyph glyph-name="Ccaron" unicode="&#x10c;" 
d="M734 1584l-247 351h164l162 -230l163 230h168l-246 -351h-164zM824 -22q-145 0 -274 48.5t-228 139t-157 232.5t-58 318q0 170 54.5 314.5t149.5 243t225.5 153.5t280.5 55q275 0 458 -150l-76 -130q-161 119 -368 119q-156 0 -276 -79.5t-183.5 -216.5t-63.5 -307
q0 -265 146.5 -422t378.5 -157q220 0 412 144l64 -152q-209 -153 -485 -153z" />
    <glyph glyph-name="ccaron" unicode="&#x10d;" horiz-adv-x="1064" 
d="M521 1154l-247 351h164l162 -230l163 230h168l-246 -351h-164zM624 -22q-238 0 -380.5 148.5t-142.5 380.5q0 243 145 394t382 151q215 0 339 -122l-65 -122q-107 93 -261 93q-157 0 -253.5 -102.5t-96.5 -290.5q0 -174 93.5 -277t253.5 -103q155 0 280 96l58 -133
q-146 -113 -352 -113z" />
    <glyph glyph-name="Dcaron" unicode="&#x10e;" horiz-adv-x="1540" 
d="M616 1584l-247 351h164l162 -230l163 230h168l-246 -351h-164zM202 0v1456h358q422 0 645 -179t223 -551q0 -348 -207 -537t-596 -189h-423zM393 161h242q292 0 441.5 147.5t149.5 417.5q0 291 -159.5 430t-488.5 139h-185v-1134z" />
    <glyph glyph-name="dcaron" unicode="&#x10f;" horiz-adv-x="1264" 
d="M597 128q151 0 233 107t82 287q0 169 -83 274.5t-229 105.5t-227 -106.5t-81 -281.5q0 -174 79 -280t226 -106zM570 -22q-206 0 -337.5 145.5t-131.5 386.5q0 158 56 279.5t165.5 192t257.5 70.5q118 0 206 -53t122 -127v614h185v-1220q1 -92 7 -266h-187l-4 174
q-31 -80 -119.5 -138t-219.5 -58zM1175 994l109 474h209l-168 -474h-150z" />
    <glyph glyph-name="Dcroat" unicode="&#x110;" horiz-adv-x="1540" 
d="M45 704v142h556v-142h-556zM202 0v1456h358q422 0 645 -179t223 -551q0 -348 -207 -537t-596 -189h-423zM393 161h242q292 0 441.5 147.5t149.5 417.5q0 291 -159.5 430t-488.5 139h-185v-1134z" />
    <glyph glyph-name="dcroat" unicode="&#x111;" horiz-adv-x="1264" 
d="M685 1191v124h584v-124h-584zM597 128q151 0 233 107t82 287q0 169 -83 274.5t-229 105.5t-227 -106.5t-81 -281.5q0 -174 79 -280t226 -106zM570 -22q-206 0 -337.5 145.5t-131.5 386.5q0 158 56 279.5t165.5 192t257.5 70.5q118 0 206 -53t122 -127v614h185v-1220
q1 -92 7 -266h-187l-4 174q-31 -80 -119.5 -138t-219.5 -58z" />
    <glyph glyph-name="Emacron" unicode="&#x112;" horiz-adv-x="1205" 
d="M372 1672v124h584v-124h-584zM202 0v1456h872v-161h-681v-458h643v-162h-643v-514h710v-161h-901z" />
    <glyph glyph-name="emacron" unicode="&#x113;" horiz-adv-x="1166" 
d="M318 1242v124h584v-124h-584zM296 613h589q-10 141 -82 217t-192 76q-126 0 -210.5 -78t-104.5 -215zM634 -22q-245 0 -389 145.5t-144 386.5q0 237 138.5 389.5t366.5 152.5q144 0 246.5 -67t152 -182t49.5 -267q0 -19 -3 -49h-760q3 -172 99 -265.5t254 -93.5
q184 0 326 114l55 -136q-165 -128 -391 -128z" />
    <glyph glyph-name="Ebreve" unicode="&#x114;" horiz-adv-x="1205" 
d="M640 1610q-130 0 -199.5 63t-78.5 197h131q5 -70 42 -99t105 -29q65 0 101 29.5t43 98.5h129q-17 -260 -273 -260zM202 0v1456h872v-161h-681v-458h643v-162h-643v-514h710v-161h-901z" />
    <glyph glyph-name="ebreve" unicode="&#x115;" horiz-adv-x="1166" 
d="M296 613h589q-10 141 -82 217t-192 76q-126 0 -210.5 -78t-104.5 -215zM634 -22q-245 0 -389 145.5t-144 386.5q0 237 138.5 389.5t366.5 152.5q144 0 246.5 -67t152 -182t49.5 -267q0 -19 -3 -49h-760q3 -172 99 -265.5t254 -93.5q184 0 326 114l55 -136
q-165 -128 -391 -128zM586 1180q-130 0 -199.5 63t-78.5 197h131q5 -70 42 -99t105 -29q65 0 101 29.5t43 98.5h129q-17 -260 -273 -260z" />
    <glyph glyph-name="Edotaccent" unicode="&#x116;" horiz-adv-x="1205" 
d="M549 1686v182h188v-182h-188zM202 0v1456h872v-161h-681v-458h643v-162h-643v-514h710v-161h-901z" />
    <glyph glyph-name="edotaccent" unicode="&#x117;" horiz-adv-x="1166" 
d="M296 613h589q-10 141 -82 217t-192 76q-126 0 -210.5 -78t-104.5 -215zM634 -22q-245 0 -389 145.5t-144 386.5q0 237 138.5 389.5t366.5 152.5q144 0 246.5 -67t152 -182t49.5 -267q0 -19 -3 -49h-760q3 -172 99 -265.5t254 -93.5q184 0 326 114l55 -136
q-165 -128 -391 -128zM494 1256v182h188v-182h-188z" />
    <glyph glyph-name="Eogonek" unicode="&#x118;" horiz-adv-x="1205" 
d="M847 -424q-100 0 -166.5 45.5t-66.5 128.5q0 79 65 149t152 116l105 -5q-69 -45 -115.5 -112.5t-46.5 -118.5q0 -41 28.5 -63.5t85.5 -22.5q50 0 133 23v-112q-89 -28 -174 -28zM202 0v1456h872v-161h-681v-458h643v-162h-643v-514h710v-161h-901z" />
    <glyph glyph-name="eogonek" unicode="&#x119;" horiz-adv-x="1166" 
d="M707 -424q-100 0 -166.5 45.5t-66.5 128.5q0 79 65 149t152 116l105 -5q-69 -45 -115.5 -112.5t-46.5 -118.5q0 -41 28.5 -63.5t85.5 -22.5q50 0 133 23v-112q-89 -28 -174 -28zM296 613h589q-10 141 -82 217t-192 76q-126 0 -210.5 -78t-104.5 -215zM634 -22
q-245 0 -389 145.5t-144 386.5q0 237 138.5 389.5t366.5 152.5q144 0 246.5 -67t152 -182t49.5 -267q0 -19 -3 -49h-760q3 -172 99 -265.5t254 -93.5q184 0 326 114l55 -136q-165 -128 -391 -128z" />
    <glyph glyph-name="Ecaron" unicode="&#x11a;" horiz-adv-x="1205" 
d="M564 1584l-247 351h164l162 -230l163 230h168l-246 -351h-164zM202 0v1456h872v-161h-681v-458h643v-162h-643v-514h710v-161h-901z" />
    <glyph glyph-name="ecaron" unicode="&#x11b;" horiz-adv-x="1166" 
d="M296 613h589q-10 141 -82 217t-192 76q-126 0 -210.5 -78t-104.5 -215zM634 -22q-245 0 -389 145.5t-144 386.5q0 237 138.5 389.5t366.5 152.5q144 0 246.5 -67t152 -182t49.5 -267q0 -19 -3 -49h-760q3 -172 99 -265.5t254 -93.5q184 0 326 114l55 -136
q-165 -128 -391 -128zM510 1154l-247 351h164l162 -230l163 230h168l-246 -351h-164z" />
    <glyph glyph-name="Gcircumflex" unicode="&#x11c;" horiz-adv-x="1527" 
d="M521 1584l234 347h162l236 -347h-156l-162 218l-164 -218h-150zM844 -22q-235 0 -402 90.5t-250.5 253t-83.5 382.5q0 224 94.5 401t266.5 277t392 100q283 0 479 -146l-77 -133q-173 118 -398 118q-166 0 -294 -79t-196.5 -217.5t-68.5 -312.5q0 -262 140 -417.5
t406 -155.5q181 0 318 52v412h-368v163h558v-682q-232 -106 -516 -106z" />
    <glyph glyph-name="gcircumflex" unicode="&#x11d;" horiz-adv-x="1267" 
d="M594 158q156 0 237 101.5t81 272.5q0 169 -80.5 269.5t-224.5 100.5q-147 0 -231 -106t-84 -278q0 -171 79 -265.5t223 -94.5zM571 -418q-202 0 -379 87l29 159q170 -97 343 -97q164 0 254 88t90 266v107q-43 -77 -124.5 -127.5t-200.5 -50.5q-213 0 -347.5 135.5
t-134.5 366.5q0 157 54.5 277t164.5 189.5t262 69.5q117 0 199 -50t127 -128l3 152h190q-11 -166 -11 -276v-610q0 -122 -30 -222t-91.5 -176t-162.5 -118t-235 -42zM240 1154l234 347h162l236 -347h-156l-162 218l-164 -218h-150z" />
    <glyph glyph-name="Gbreve" unicode="&#x11e;" horiz-adv-x="1527" 
d="M828 1610q-130 0 -199.5 63t-78.5 197h131q5 -70 42 -99t105 -29q65 0 101 29.5t43 98.5h129q-17 -260 -273 -260zM844 -22q-235 0 -402 90.5t-250.5 253t-83.5 382.5q0 224 94.5 401t266.5 277t392 100q283 0 479 -146l-77 -133q-173 118 -398 118q-166 0 -294 -79
t-196.5 -217.5t-68.5 -312.5q0 -262 140 -417.5t406 -155.5q181 0 318 52v412h-368v163h558v-682q-232 -106 -516 -106z" />
    <glyph glyph-name="gbreve" unicode="&#x11f;" horiz-adv-x="1267" 
d="M594 158q156 0 237 101.5t81 272.5q0 169 -80.5 269.5t-224.5 100.5q-147 0 -231 -106t-84 -278q0 -171 79 -265.5t223 -94.5zM571 -418q-202 0 -379 87l29 159q170 -97 343 -97q164 0 254 88t90 266v107q-43 -77 -124.5 -127.5t-200.5 -50.5q-213 0 -347.5 135.5
t-134.5 366.5q0 157 54.5 277t164.5 189.5t262 69.5q117 0 199 -50t127 -128l3 152h190q-11 -166 -11 -276v-610q0 -122 -30 -222t-91.5 -176t-162.5 -118t-235 -42zM547 1180q-130 0 -199.5 63t-78.5 197h131q5 -70 42 -99t105 -29q65 0 101 29.5t43 98.5h129
q-17 -260 -273 -260z" />
    <glyph glyph-name="Gdotaccent" unicode="&#x120;" horiz-adv-x="1527" 
d="M736 1686v182h188v-182h-188zM844 -22q-235 0 -402 90.5t-250.5 253t-83.5 382.5q0 224 94.5 401t266.5 277t392 100q283 0 479 -146l-77 -133q-173 118 -398 118q-166 0 -294 -79t-196.5 -217.5t-68.5 -312.5q0 -262 140 -417.5t406 -155.5q181 0 318 52v412h-368v163
h558v-682q-232 -106 -516 -106z" />
    <glyph glyph-name="gdotaccent" unicode="&#x121;" horiz-adv-x="1267" 
d="M594 158q156 0 237 101.5t81 272.5q0 169 -80.5 269.5t-224.5 100.5q-147 0 -231 -106t-84 -278q0 -171 79 -265.5t223 -94.5zM571 -418q-202 0 -379 87l29 159q170 -97 343 -97q164 0 254 88t90 266v107q-43 -77 -124.5 -127.5t-200.5 -50.5q-213 0 -347.5 135.5
t-134.5 366.5q0 157 54.5 277t164.5 189.5t262 69.5q117 0 199 -50t127 -128l3 152h190q-11 -166 -11 -276v-610q0 -122 -30 -222t-91.5 -176t-162.5 -118t-235 -42zM455 1256v182h188v-182h-188z" />
    <glyph glyph-name="Gcommaaccent" unicode="&#x122;" horiz-adv-x="1527" 
d="M598 -607l109 473h209l-168 -473h-150zM844 -22q-235 0 -402 90.5t-250.5 253t-83.5 382.5q0 224 94.5 401t266.5 277t392 100q283 0 479 -146l-77 -133q-173 118 -398 118q-166 0 -294 -79t-196.5 -217.5t-68.5 -312.5q0 -262 140 -417.5t406 -155.5q181 0 318 52v412
h-368v163h558v-682q-232 -106 -516 -106z" />
    <glyph glyph-name="gcommaaccent" unicode="&#x123;" horiz-adv-x="1267" 
d="M762 1681l-108 -489h-209l167 489h150zM594 158q156 0 237 101.5t81 272.5q0 169 -80.5 269.5t-224.5 100.5q-147 0 -231 -106t-84 -278q0 -171 79 -265.5t223 -94.5zM571 -418q-202 0 -379 87l29 159q170 -97 343 -97q164 0 254 88t90 266v107q-43 -77 -124.5 -127.5
t-200.5 -50.5q-213 0 -347.5 135.5t-134.5 366.5q0 157 54.5 277t164.5 189.5t262 69.5q117 0 199 -50t127 -128l3 152h190q-11 -166 -11 -276v-610q0 -122 -30 -222t-91.5 -176t-162.5 -118t-235 -42z" />
    <glyph glyph-name="Hcircumflex" unicode="&#x124;" horiz-adv-x="1559" 
d="M468 1584l234 347h162l236 -347h-156l-162 218l-164 -218h-150zM202 0v1456h192v-629h773v629h190v-1456h-189v666h-774v-666h-192z" />
    <glyph glyph-name="hcircumflex" unicode="&#x125;" horiz-adv-x="1237" 
d="M166 0v1486h184v-621q46 84 143 135.5t206 51.5q96 0 170 -34t119 -93.5t68 -137t23 -168.5v-619h-185v614q0 151 -52 219.5t-168 68.5q-126 0 -225 -85t-99 -195v-622h-184zM387 1154l234 347h162l236 -347h-156l-162 218l-164 -218h-150z" />
    <glyph glyph-name="Hbar" unicode="&#x126;" horiz-adv-x="1566" 
d="M98 1161l-1 108h1365v-108h-1364zM202 0v1456h192v-629h773v629h190v-1456h-189v666h-774v-666h-192z" />
    <glyph glyph-name="hbar" unicode="&#x127;" horiz-adv-x="1237" 
d="M-24 1190v124h584v-124h-584zM166 0v1486h184v-621q46 84 143 135.5t206 51.5q96 0 170 -34t119 -93.5t68 -137t23 -168.5v-619h-185v614q0 151 -52 219.5t-168 68.5q-126 0 -225 -85t-99 -195v-622h-184z" />
    <glyph glyph-name="Itilde" unicode="&#x128;" horiz-adv-x="602" 
d="M477 1605q-38 0 -96.5 25t-112.5 50.5t-83 25.5q-61 0 -70 -93h-118q0 106 48.5 169.5t131.5 63.5q21 0 45 -5.5t46.5 -14.5t45 -20t44 -21.5t41 -19.5t37.5 -14.5t32 -5.5q32 0 45.5 22t14.5 77h122q0 -112 -44.5 -175.5t-128.5 -63.5zM218 0v1456h191v-1456h-191z" />
    <glyph glyph-name="itilde" unicode="&#x129;" horiz-adv-x="534" 
d="M423 1175q-38 0 -96.5 25t-112.5 50.5t-83 25.5q-61 0 -70 -93h-118q0 106 48.5 169.5t131.5 63.5q21 0 45 -5.5t46.5 -14.5t45 -20t44 -21.5t41 -19.5t37.5 -14.5t32 -5.5q32 0 45.5 22t14.5 77h122q0 -112 -44.5 -175.5t-128.5 -63.5zM177 0l-1 1026h185l1 -1026h-185z
" />
    <glyph glyph-name="Imacron" unicode="&#x12a;" horiz-adv-x="602" 
d="M48 1672v124h584v-124h-584zM218 0v1456h191v-1456h-191z" />
    <glyph glyph-name="imacron" unicode="&#x12b;" horiz-adv-x="534" 
d="M-5 1242v124h584v-124h-584zM177 0l-1 1026h185l1 -1026h-185z" />
    <glyph glyph-name="Ibreve" unicode="&#x12c;" horiz-adv-x="602" 
d="M316 1610q-130 0 -199.5 63t-78.5 197h131q5 -70 42 -99t105 -29q65 0 101 29.5t43 98.5h129q-17 -260 -273 -260zM218 0v1456h191v-1456h-191z" />
    <glyph glyph-name="ibreve" unicode="&#x12d;" horiz-adv-x="534" 
d="M177 0l-1 1026h185l1 -1026h-185zM263 1180q-130 0 -199.5 63t-78.5 197h131q5 -70 42 -99t105 -29q65 0 101 29.5t43 98.5h129q-17 -260 -273 -260z" />
    <glyph glyph-name="Iogonek" unicode="&#x12e;" horiz-adv-x="602" 
d="M323 -424q-100 0 -166.5 45.5t-66.5 128.5q0 79 65 149t152 116l105 -5q-69 -45 -115.5 -112.5t-46.5 -118.5q0 -41 28.5 -63.5t85.5 -22.5q50 0 133 23v-112q-89 -28 -174 -28zM218 0v1456h191v-1456h-191z" />
    <glyph glyph-name="iogonek" unicode="&#x12f;" horiz-adv-x="534" 
d="M265 -424q-100 0 -166.5 45.5t-66.5 128.5q0 79 65 149t152 116l105 -5q-69 -45 -115.5 -112.5t-46.5 -118.5q0 -41 28.5 -63.5t85.5 -22.5q50 0 133 23v-112q-89 -28 -174 -28zM177 0l-1 1026h185l1 -1026h-185zM171 1256v182h188v-182h-188z" />
    <glyph glyph-name="Idotaccent" unicode="&#x130;" horiz-adv-x="602" 
d="M225 1686v182h188v-182h-188zM218 0v1456h191v-1456h-191z" />
    <glyph glyph-name="dotlessi" unicode="&#x131;" horiz-adv-x="533" 
d="M177 0l-1 1026h185l1 -1026h-185z" />
    <glyph glyph-name="IJ" unicode="&#x132;" horiz-adv-x="1388" 
d="M831 -326q-110 0 -236 42l27 150q105 -31 184 -31q111 0 152 65.5t41 219.5v1336h191v-1335q0 -231 -90 -339t-269 -108zM218 0v1456h191v-1456h-191z" />
    <glyph glyph-name="ij" unicode="&#x133;" horiz-adv-x="1023" 
d="M683 1277v179h183v-179h-183zM541 -423q-64 0 -127 12v151q52 -12 88 -12q94 0 140.5 75t46.5 233v990h174v-922q0 -56 -2.5 -102.5t-10.5 -102.5t-21.5 -100t-38 -87t-57.5 -71.5t-82 -46t-110 -17.5zM173 1285v171h182v-171h-182zM172 0v1026h183v-1026h-183z" />
    <glyph glyph-name="Jcircumflex" unicode="&#x134;" horiz-adv-x="786" 
d="M177 1584l234 347h162l236 -347h-156l-162 218l-164 -218h-150zM229 -326q-110 0 -236 42l27 150q105 -31 184 -31q111 0 152 65.5t41 219.5v1336h191v-1335q0 -231 -90 -339t-269 -108z" />
    <glyph glyph-name="jcircumflex" unicode="&#x135;" horiz-adv-x="503" 
d="M21 -423q-64 0 -127 12v151q52 -12 88 -12q94 0 140.5 75t46.5 233v990h174v-922q0 -56 -2.5 -102.5t-10.5 -102.5t-21.5 -100t-38 -87t-57.5 -71.5t-82 -46t-110 -17.5zM-53 1154l234 347h162l236 -347h-156l-162 218l-164 -218h-150z" />
    <glyph glyph-name="Kcommaaccent" unicode="&#x136;" horiz-adv-x="1295" 
d="M498 -607l109 473h209l-168 -473h-150zM202 0v1456h191v-656l627 656h237l-673 -701l721 -755h-242l-670 692v-692h-191z" />
    <glyph glyph-name="kcommaaccent" unicode="&#x137;" horiz-adv-x="1111" 
d="M381 -607l109 473h209l-168 -473h-150zM174 0v1486h184v-899l445 439h252l-520 -489l556 -537h-244l-489 485v-485h-184z" />
    <glyph glyph-name="kgreenlandic" unicode="&#x138;" horiz-adv-x="1082" 
d="M170 0v1026h185v-455l439 455h244l-521 -509l558 -517h-237l-483 455v-455h-185z" />
    <glyph glyph-name="Lacute" unicode="&#x139;" horiz-adv-x="1109" 
d="M243 1602l236 360h237l-319 -360h-154zM202 0v1456h191v-1295h677v-161h-868z" />
    <glyph glyph-name="lacute" unicode="&#x13a;" horiz-adv-x="526" 
d="M177 0v1486h184v-1486h-184zM200 1602l236 360h237l-319 -360h-154z" />
    <glyph glyph-name="Lcommaaccent" unicode="&#x13b;" horiz-adv-x="1109" 
d="M454 -607l109 473h209l-168 -473h-150zM202 0v1456h191v-1295h677v-161h-868z" />
    <glyph glyph-name="lcommaaccent" unicode="&#x13c;" horiz-adv-x="526" 
d="M67 -607l109 473h209l-168 -473h-150zM177 0v1486h184v-1486h-184z" />
    <glyph glyph-name="Lcaron" unicode="&#x13d;" horiz-adv-x="1109" 
d="M590 994l109 474h209l-168 -474h-150zM202 0v1456h191v-1295h677v-161h-868z" />
    <glyph glyph-name="lcaron" unicode="&#x13e;" horiz-adv-x="526" 
d="M177 0v1486h184v-1486h-184zM530 994l109 474h209l-168 -474h-150z" />
    <glyph glyph-name="Ldot" unicode="&#x13f;" horiz-adv-x="1109" 
d="M583 643v200h199v-200h-199zM202 0v1456h191v-1295h677v-161h-868z" />
    <glyph glyph-name="ldot" unicode="&#x140;" horiz-adv-x="526" 
d="M510 639v200h199v-200h-199zM177 0v1486h184v-1486h-184z" />
    <glyph glyph-name="Lslash" unicode="&#x141;" horiz-adv-x="1131" 
d="M51 472v159l638 407v-159zM202 0v1456h191v-1295h677v-161h-868z" />
    <glyph glyph-name="lslash" unicode="&#x142;" horiz-adv-x="503" 
d="M156 0v698l-155 -100v158l155 100v627h185v-506l154 100v-158l-154 -102v-817h-185z" />
    <glyph glyph-name="Nacute" unicode="&#x143;" horiz-adv-x="1598" 
d="M741 1602l236 360h237l-319 -360h-154zM202 0v1456h203l702 -1024l108 -170v1194h182v-1456h-204l-684 986l-128 200v-1186h-179z" />
    <glyph glyph-name="nacute" unicode="&#x144;" horiz-adv-x="1244" 
d="M177 0v742q0 68 -2.5 139t-5.5 108l-3 37h190l2 -161q53 88 148.5 137.5t201.5 49.5q194 0 286 -117.5t92 -356.5v-578h-184v577q0 167 -50 246t-176 79q-116 0 -211 -78.5t-103 -180.5v-643h-185zM617 1172l236 360h237l-319 -360h-154z" />
    <glyph glyph-name="Ncommaaccent" unicode="&#x145;" horiz-adv-x="1598" 
d="M622 -607l109 473h209l-168 -473h-150zM202 0v1456h203l702 -1024l108 -170v1194h182v-1456h-204l-684 986l-128 200v-1186h-179z" />
    <glyph glyph-name="ncommaaccent" unicode="&#x146;" horiz-adv-x="1244" 
d="M453 -607l109 473h209l-168 -473h-150zM177 0v742q0 68 -2.5 139t-5.5 108l-3 37h190l2 -161q53 88 148.5 137.5t201.5 49.5q194 0 286 -117.5t92 -356.5v-578h-184v577q0 167 -50 246t-176 79q-116 0 -211 -78.5t-103 -180.5v-643h-185z" />
    <glyph glyph-name="Ncaron" unicode="&#x147;" horiz-adv-x="1598" 
d="M728 1584l-247 351h164l162 -230l163 230h168l-246 -351h-164zM202 0v1456h203l702 -1024l108 -170v1194h182v-1456h-204l-684 986l-128 200v-1186h-179z" />
    <glyph glyph-name="ncaron" unicode="&#x148;" horiz-adv-x="1244" 
d="M177 0v742q0 68 -2.5 139t-5.5 108l-3 37h190l2 -161q53 88 148.5 137.5t201.5 49.5q194 0 286 -117.5t92 -356.5v-578h-184v577q0 167 -50 246t-176 79q-116 0 -211 -78.5t-103 -180.5v-643h-185zM604 1154l-247 351h164l162 -230l163 230h168l-246 -351h-164z" />
    <glyph glyph-name="napostrophe" unicode="&#x149;" horiz-adv-x="1250" 
d="M177 0v742q0 68 -2.5 139t-5.5 108l-3 37h190l2 -161q53 88 148.5 137.5t201.5 49.5q194 0 286 -117.5t92 -356.5v-578h-184v577q0 167 -50 246t-176 79q-116 0 -211 -78.5t-103 -180.5v-643h-185zM38 1215l68 574h220l-154 -574h-134z" />
    <glyph glyph-name="Eng" unicode="&#x14a;" horiz-adv-x="1570" 
d="M1391 1456v-1400q-1 -244 -111 -368t-356 -124v147q138 0 209.5 62.5t71.5 198.5v83l-719 989l-102 156v-1200h-184v1456h207l691 -968l107 -161v1129h186z" />
    <glyph glyph-name="eng" unicode="&#x14b;" horiz-adv-x="1235" 
d="M602 -408v139q167 0 230 87.5t63 281.5v449q0 72 -5 122t-19 96t-39 73.5t-66 43.5t-99 16q-122 0 -213.5 -85t-92.5 -172v-643h-185v742q0 68 -2.5 139t-5.5 108l-2 37h192l1 -144q55 83 145.5 126t198.5 43q203 0 290.5 -124t87.5 -368v-429q0 -265 -113 -401.5
t-366 -136.5z" />
    <glyph glyph-name="Omacron" unicode="&#x14c;" horiz-adv-x="1626" 
d="M544 1672v124h584v-124h-584zM816 -22q-330 0 -519.5 203t-189.5 548q0 223 83.5 392.5t245.5 265t382 95.5q321 0 511.5 -207.5t190.5 -545.5q0 -344 -188 -547.5t-516 -203.5zM814 139q244 0 371 157.5t127 432.5q0 269 -127.5 430.5t-368.5 161.5
q-240 0 -372.5 -162.5t-132.5 -429.5q0 -274 130 -432t373 -158z" />
    <glyph glyph-name="omacron" unicode="&#x14d;" horiz-adv-x="1258" 
d="M631 -22q-249 0 -389.5 148t-140.5 386q0 242 141.5 391t390.5 149q248 0 386 -148.5t138 -391.5q0 -238 -140 -386t-386 -148zM631 128q162 0 247.5 105t85.5 279q0 177 -86.5 283.5t-247.5 106.5q-162 0 -249 -106.5t-87 -283.5q0 -174 86.5 -279t250.5 -105zM360 1242
v124h584v-124h-584z" />
    <glyph glyph-name="Obreve" unicode="&#x14e;" horiz-adv-x="1626" 
d="M812 1610q-130 0 -199.5 63t-78.5 197h131q5 -70 42 -99t105 -29q65 0 101 29.5t43 98.5h129q-17 -260 -273 -260zM816 -22q-330 0 -519.5 203t-189.5 548q0 223 83.5 392.5t245.5 265t382 95.5q321 0 511.5 -207.5t190.5 -545.5q0 -344 -188 -547.5t-516 -203.5z
M814 139q244 0 371 157.5t127 432.5q0 269 -127.5 430.5t-368.5 161.5q-240 0 -372.5 -162.5t-132.5 -429.5q0 -274 130 -432t373 -158z" />
    <glyph glyph-name="obreve" unicode="&#x14f;" horiz-adv-x="1258" 
d="M631 -22q-249 0 -389.5 148t-140.5 386q0 242 141.5 391t390.5 149q248 0 386 -148.5t138 -391.5q0 -238 -140 -386t-386 -148zM631 128q162 0 247.5 105t85.5 279q0 177 -86.5 283.5t-247.5 106.5q-162 0 -249 -106.5t-87 -283.5q0 -174 86.5 -279t250.5 -105zM628 1180
q-130 0 -199.5 63t-78.5 197h131q5 -70 42 -99t105 -29q65 0 101 29.5t43 98.5h129q-17 -260 -273 -260z" />
    <glyph glyph-name="Ohungarumlaut" unicode="&#x150;" horiz-adv-x="1626" 
d="M943 1590l241 372h208l-312 -372h-137zM619 1590l212 372h199l-278 -372h-133zM816 -22q-330 0 -519.5 203t-189.5 548q0 223 83.5 392.5t245.5 265t382 95.5q321 0 511.5 -207.5t190.5 -545.5q0 -344 -188 -547.5t-516 -203.5zM814 139q244 0 371 157.5t127 432.5
q0 269 -127.5 430.5t-368.5 161.5q-240 0 -372.5 -162.5t-132.5 -429.5q0 -274 130 -432t373 -158z" />
    <glyph glyph-name="ohungarumlaut" unicode="&#x151;" horiz-adv-x="1258" 
d="M631 -22q-249 0 -389.5 148t-140.5 386q0 242 141.5 391t390.5 149q248 0 386 -148.5t138 -391.5q0 -238 -140 -386t-386 -148zM631 128q162 0 247.5 105t85.5 279q0 177 -86.5 283.5t-247.5 106.5q-162 0 -249 -106.5t-87 -283.5q0 -174 86.5 -279t250.5 -105zM759 1160
l241 372h208l-312 -372h-137zM435 1160l212 372h199l-278 -372h-133z" />
    <glyph glyph-name="OE" unicode="&#x152;" horiz-adv-x="2049" 
d="M814 132q63 0 117.5 11.5t92.5 31t63 39t43 40.5v958q-47 47 -121.5 77.5t-178.5 30.5q-121 0 -219 -44t-163.5 -122.5t-100.5 -188t-35 -240.5q0 -129 31.5 -236.5t93 -187.5t158 -124.5t219.5 -44.5zM1130 94q-18 -19 -48.5 -38.5t-73 -37.5t-100 -29t-119.5 -11
q-208 0 -361.5 90t-236.5 260t-83 401q0 166 50.5 306.5t141.5 239t221 153.5t284 55q116 0 200 -31.5t125 -70.5v75h811v-165h-619v-462h580v-166h-580v-498h649v-165h-841v94z" />
    <glyph glyph-name="oe" unicode="&#x153;" horiz-adv-x="1978" 
d="M1115 615h577v24q-14 116 -89 189.5t-190 73.5q-122 0 -204.5 -83t-93.5 -204zM624 128q100 0 170.5 52.5t103.5 137.5t33 193q0 177 -79 284t-232 107q-155 0 -243 -110.5t-88 -285.5q0 -167 86.5 -272.5t248.5 -105.5zM620 -22q-244 0 -384.5 148t-140.5 383
q0 156 60 277.5t180.5 193.5t285.5 72q141 0 242.5 -60.5t159.5 -168.5q112 231 389 231q213 0 332.5 -144.5t119.5 -385.5v-53h-751q1 -1 1.5 -15.5t0.5 -15.5q8 -142 99.5 -227t240.5 -85q169 0 322 107l56 -134q-161 -123 -397 -123q-133 0 -248.5 63t-166.5 167
q-48 -106 -157.5 -168t-243.5 -62z" />
    <glyph glyph-name="Racute" unicode="&#x154;" horiz-adv-x="1362" 
d="M584 1602l236 360h237l-319 -360h-154zM392 808h271q145 0 225 57.5t80 192.5q0 55 -11.5 95.5t-33 67.5t-57 43.5t-79.5 23.5t-104 7h-3.5h-3.5h-4h-280v-487zM202 0v1456h466q90 0 161 -9.5t136.5 -35.5t108.5 -68.5t68.5 -111.5t25.5 -162q0 -137 -70 -229t-213 -122
q82 -26 129.5 -90.5t96.5 -187.5l171 -440h-204l-160 428q-34 92 -62.5 135t-74.5 63.5t-127 20.5h-261v-647h-191z" />
    <glyph glyph-name="racute" unicode="&#x155;" horiz-adv-x="803" 
d="M179 0v774q0 34 -3.5 97t-6.5 109l-3 46h195l2 -160q93 184 274 184q57 0 104 -12l-1 -163q-59 16 -113 16q-118 0 -190 -82.5t-72 -237.5v-571h-186zM450 1172l236 360h237l-319 -360h-154z" />
    <glyph glyph-name="Rcommaaccent" unicode="&#x156;" horiz-adv-x="1362" 
d="M511 -607l109 473h209l-168 -473h-150zM392 808h271q145 0 225 57.5t80 192.5q0 55 -11.5 95.5t-33 67.5t-57 43.5t-79.5 23.5t-104 7h-3.5h-3.5h-4h-280v-487zM202 0v1456h466q90 0 161 -9.5t136.5 -35.5t108.5 -68.5t68.5 -111.5t25.5 -162q0 -137 -70 -229t-213 -122
q82 -26 129.5 -90.5t96.5 -187.5l171 -440h-204l-160 428q-34 92 -62.5 135t-74.5 63.5t-127 20.5h-261v-647h-191z" />
    <glyph glyph-name="rcommaaccent" unicode="&#x157;" horiz-adv-x="803" 
d="M83 -607l109 473h209l-168 -473h-150zM179 0v774q0 34 -3.5 97t-6.5 109l-3 46h195l2 -160q93 184 274 184q57 0 104 -12l-1 -163q-59 16 -113 16q-118 0 -190 -82.5t-72 -237.5v-571h-186z" />
    <glyph glyph-name="Rcaron" unicode="&#x158;" horiz-adv-x="1362" 
d="M571 1584l-247 351h164l162 -230l163 230h168l-246 -351h-164zM392 808h271q145 0 225 57.5t80 192.5q0 55 -11.5 95.5t-33 67.5t-57 43.5t-79.5 23.5t-104 7h-3.5h-3.5h-4h-280v-487zM202 0v1456h466q90 0 161 -9.5t136.5 -35.5t108.5 -68.5t68.5 -111.5t25.5 -162
q0 -137 -70 -229t-213 -122q82 -26 129.5 -90.5t96.5 -187.5l171 -440h-204l-160 428q-34 92 -62.5 135t-74.5 63.5t-127 20.5h-261v-647h-191z" />
    <glyph glyph-name="rcaron" unicode="&#x159;" horiz-adv-x="803" 
d="M179 0v774q0 34 -3.5 97t-6.5 109l-3 46h195l2 -160q93 184 274 184q57 0 104 -12l-1 -163q-59 16 -113 16q-118 0 -190 -82.5t-72 -237.5v-571h-186zM437 1154l-247 351h164l162 -230l163 230h168l-246 -351h-164z" />
    <glyph glyph-name="Sacute" unicode="&#x15a;" horiz-adv-x="1214" 
d="M555 1602l236 360h237l-319 -360h-154zM600 139q60 0 108.5 11t84.5 31.5t60.5 51t36.5 70t12 87.5q0 52 -11 87.5t-42 67.5t-84.5 57.5t-141.5 52.5q-9 3 -43.5 12.5t-45.5 13.5q-209 60 -304.5 152t-95.5 265q0 123 64 211t171.5 130.5t247.5 42.5q295 0 449 -152
l-95 -129q-51 50 -138 85t-193 35q-138 0 -220.5 -55t-82.5 -162q0 -72 19.5 -114t71 -73t155.5 -64q2 -1 37.5 -11t47.5 -13q128 -38 210.5 -79t132.5 -94.5t70 -117.5t20 -154q0 -101 -38.5 -179.5t-106.5 -127.5t-156 -74t-192 -25q-163 0 -291.5 53.5t-187.5 110.5
l85 138q64 -51 168 -96t218 -45z" />
    <glyph glyph-name="sacute" unicode="&#x15b;" horiz-adv-x="978" 
d="M518 -22q-133 0 -234.5 40t-157.5 84l51 137q57 -42 145.5 -76t180.5 -34q204 0 204 150q0 63 -46 94t-179 76l-88 30q-51 18 -86.5 34t-71.5 40.5t-58 53t-35.5 69t-13.5 91.5q0 73 30.5 129.5t83.5 89t117 49t138 16.5q203 0 342 -89l-51 -132q-135 72 -270 72
q-99 0 -153 -34t-54 -96q0 -56 32.5 -82.5t129.5 -61.5q87 -29 103 -35q63 -22 101 -38t81.5 -42.5t67 -55.5t39 -72.5t15.5 -98.5q0 -82 -31 -143.5t-84 -96t-115 -51.5t-133 -17zM419 1172l236 360h237l-319 -360h-154z" />
    <glyph glyph-name="Scircumflex" unicode="&#x15c;" horiz-adv-x="1214" 
d="M311 1584l234 347h162l236 -347h-156l-162 218l-164 -218h-150zM600 139q60 0 108.5 11t84.5 31.5t60.5 51t36.5 70t12 87.5q0 52 -11 87.5t-42 67.5t-84.5 57.5t-141.5 52.5q-9 3 -43.5 12.5t-45.5 13.5q-209 60 -304.5 152t-95.5 265q0 123 64 211t171.5 130.5
t247.5 42.5q295 0 449 -152l-95 -129q-51 50 -138 85t-193 35q-138 0 -220.5 -55t-82.5 -162q0 -72 19.5 -114t71 -73t155.5 -64q2 -1 37.5 -11t47.5 -13q128 -38 210.5 -79t132.5 -94.5t70 -117.5t20 -154q0 -101 -38.5 -179.5t-106.5 -127.5t-156 -74t-192 -25
q-163 0 -291.5 53.5t-187.5 110.5l85 138q64 -51 168 -96t218 -45z" />
    <glyph glyph-name="scircumflex" unicode="&#x15d;" horiz-adv-x="978" 
d="M518 -22q-133 0 -234.5 40t-157.5 84l51 137q57 -42 145.5 -76t180.5 -34q204 0 204 150q0 63 -46 94t-179 76l-88 30q-51 18 -86.5 34t-71.5 40.5t-58 53t-35.5 69t-13.5 91.5q0 73 30.5 129.5t83.5 89t117 49t138 16.5q203 0 342 -89l-51 -132q-135 72 -270 72
q-99 0 -153 -34t-54 -96q0 -56 32.5 -82.5t129.5 -61.5q87 -29 103 -35q63 -22 101 -38t81.5 -42.5t67 -55.5t39 -72.5t15.5 -98.5q0 -82 -31 -143.5t-84 -96t-115 -51.5t-133 -17zM175 1154l234 347h162l236 -347h-156l-162 218l-164 -218h-150z" />
    <glyph glyph-name="Scedilla" unicode="&#x15e;" horiz-adv-x="1214" 
d="M642 -447q-95 0 -176 28l13 97q21 -9 67.5 -18t86.5 -9h3q51 0 79.5 20t28.5 55q0 34 -39 60.5t-121 26.5h-22l32 196h97l-20 -128q105 -10 166.5 -52t61.5 -108q0 -40 -19.5 -72.5t-54 -53t-80.5 -31.5t-99 -11h-2h-2zM600 139q60 0 108.5 11t84.5 31.5t60.5 51t36.5 70
t12 87.5q0 52 -11 87.5t-42 67.5t-84.5 57.5t-141.5 52.5q-9 3 -43.5 12.5t-45.5 13.5q-209 60 -304.5 152t-95.5 265q0 123 64 211t171.5 130.5t247.5 42.5q295 0 449 -152l-95 -129q-51 50 -138 85t-193 35q-138 0 -220.5 -55t-82.5 -162q0 -72 19.5 -114t71 -73
t155.5 -64q2 -1 37.5 -11t47.5 -13q128 -38 210.5 -79t132.5 -94.5t70 -117.5t20 -154q0 -101 -38.5 -179.5t-106.5 -127.5t-156 -74t-192 -25q-163 0 -291.5 53.5t-187.5 110.5l85 138q64 -51 168 -96t218 -45z" />
    <glyph glyph-name="scedilla" unicode="&#x15f;" horiz-adv-x="978" 
d="M518 -22q-133 0 -234.5 40t-157.5 84l51 137q57 -42 145.5 -76t180.5 -34q204 0 204 150q0 63 -46 94t-179 76l-88 30q-51 18 -86.5 34t-71.5 40.5t-58 53t-35.5 69t-13.5 91.5q0 73 30.5 129.5t83.5 89t117 49t138 16.5q203 0 342 -89l-51 -132q-135 72 -270 72
q-99 0 -153 -34t-54 -96q0 -56 32.5 -82.5t129.5 -61.5q87 -29 103 -35q63 -22 101 -38t81.5 -42.5t67 -55.5t39 -72.5t15.5 -98.5q0 -82 -31 -143.5t-84 -96t-115 -51.5t-133 -17zM530 -447q-95 0 -176 28l13 97q21 -9 67.5 -18t86.5 -9h3q51 0 79.5 20t28.5 55
q0 34 -39 60.5t-121 26.5h-22l32 196h97l-20 -128q105 -10 166.5 -52t61.5 -108q0 -40 -19.5 -72.5t-54 -53t-80.5 -31.5t-99 -11h-2h-2z" />
    <glyph glyph-name="Scaron" unicode="&#x160;" horiz-adv-x="1214" 
d="M542 1584l-247 351h164l162 -230l163 230h168l-246 -351h-164zM600 139q60 0 108.5 11t84.5 31.5t60.5 51t36.5 70t12 87.5q0 52 -11 87.5t-42 67.5t-84.5 57.5t-141.5 52.5q-9 3 -43.5 12.5t-45.5 13.5q-209 60 -304.5 152t-95.5 265q0 123 64 211t171.5 130.5
t247.5 42.5q295 0 449 -152l-95 -129q-51 50 -138 85t-193 35q-138 0 -220.5 -55t-82.5 -162q0 -72 19.5 -114t71 -73t155.5 -64q2 -1 37.5 -11t47.5 -13q128 -38 210.5 -79t132.5 -94.5t70 -117.5t20 -154q0 -101 -38.5 -179.5t-106.5 -127.5t-156 -74t-192 -25
q-163 0 -291.5 53.5t-187.5 110.5l85 138q64 -51 168 -96t218 -45z" />
    <glyph glyph-name="scaron" unicode="&#x161;" horiz-adv-x="978" 
d="M518 -22q-133 0 -234.5 40t-157.5 84l51 137q57 -42 145.5 -76t180.5 -34q204 0 204 150q0 63 -46 94t-179 76l-88 30q-51 18 -86.5 34t-71.5 40.5t-58 53t-35.5 69t-13.5 91.5q0 73 30.5 129.5t83.5 89t117 49t138 16.5q203 0 342 -89l-51 -132q-135 72 -270 72
q-99 0 -153 -34t-54 -96q0 -56 32.5 -82.5t129.5 -61.5q87 -29 103 -35q63 -22 101 -38t81.5 -42.5t67 -55.5t39 -72.5t15.5 -98.5q0 -82 -31 -143.5t-84 -96t-115 -51.5t-133 -17zM406 1154l-247 351h164l162 -230l163 230h168l-246 -351h-164z" />
    <glyph glyph-name="Tcommaaccent" unicode="&#x162;" horiz-adv-x="1144" 
d="M584 -447q-95 0 -176 28l13 97q21 -9 67.5 -18t86.5 -9h3q51 0 79.5 20t28.5 55q0 34 -39 60.5t-121 26.5h-22l32 196h97l-20 -128q105 -10 166.5 -52t61.5 -108q0 -40 -19.5 -72.5t-54 -53t-80.5 -31.5t-99 -11h-2h-2zM475 0v1295h-465v161h1124v-161h-468v-1295h-191z
" />
    <glyph glyph-name="tcommaaccent" unicode="&#x163;" horiz-adv-x="803" 
d="M704 0h-85q-218 2 -298.5 78t-80.5 277v548h-197v123h201v264l180 53v-317h278v-123h-278v-558q0 -55 7.5 -89t23.5 -57.5t51 -34.5t79 -15.5t119 -4.5v-144zM536 -441q-95 0 -176 28l13 97q21 -9 67.5 -18t86.5 -9h3q51 0 79.5 20t28.5 55q0 34 -39 60.5t-121 26.5h-22
l32 196h97l-20 -128q105 -10 166.5 -52t61.5 -108q0 -40 -19.5 -72.5t-54 -53t-80.5 -31.5t-99 -11h-2h-2z" />
    <glyph glyph-name="Tcaron" unicode="&#x164;" horiz-adv-x="1144" 
d="M490 1584l-247 351h164l162 -230l163 230h168l-246 -351h-164zM475 0v1295h-465v161h1124v-161h-468v-1295h-191z" />
    <glyph glyph-name="tcaron" unicode="&#x165;" horiz-adv-x="803" 
d="M704 0h-85q-218 2 -298.5 78t-80.5 277v548h-197v123h201v264l180 53v-317h278v-123h-278v-558q0 -55 7.5 -89t23.5 -57.5t51 -34.5t79 -15.5t119 -4.5v-144zM537 1248l109 474h209l-168 -474h-150z" />
    <glyph glyph-name="Tbar" unicode="&#x166;" horiz-adv-x="1144" 
d="M271 686v124h584v-124h-584zM475 0v1295h-465v161h1124v-161h-468v-1295h-191z" />
    <glyph glyph-name="tbar" unicode="&#x167;" horiz-adv-x="803" 
d="M704 0h-85q-218 2 -298.5 78t-80.5 277v548h-197v123h201v264l180 53v-317h278v-123h-278v-558q0 -55 7.5 -89t23.5 -57.5t51 -34.5t79 -15.5t119 -4.5v-144zM57 540v124h584v-124h-584z" />
    <glyph glyph-name="Utilde" unicode="&#x168;" horiz-adv-x="1495" 
d="M903 1605q-38 0 -96.5 25t-112.5 50.5t-83 25.5q-61 0 -70 -93h-118q0 106 48.5 169.5t131.5 63.5q21 0 45 -5.5t46.5 -14.5t45 -20t44 -21.5t41 -19.5t37.5 -14.5t32 -5.5q32 0 45.5 22t14.5 77h122q0 -112 -44.5 -175.5t-128.5 -63.5zM744 -22q-574 0 -574 582v896h191
v-900q0 -214 97 -315.5t288 -101.5q386 0 386 413v904h190v-894q0 -133 -32 -237t-99 -183.5t-180 -121.5t-267 -42z" />
    <glyph glyph-name="utilde" unicode="&#x169;" horiz-adv-x="1235" 
d="M555 -23q-197 0 -296 112.5t-99 302.5v634h183v-634q0 -132 62.5 -198.5t180.5 -66.5q135 0 211 77t76 199v623h184v-772q0 -137 9 -254h-187l-5 165q-43 -79 -122 -133.5t-197 -54.5zM764 1175q-38 0 -96.5 25t-112.5 50.5t-83 25.5q-61 0 -70 -93h-118
q0 106 48.5 169.5t131.5 63.5q21 0 45 -5.5t46.5 -14.5t45 -20t44 -21.5t41 -19.5t37.5 -14.5t32 -5.5q32 0 45.5 22t14.5 77h122q0 -112 -44.5 -175.5t-128.5 -63.5z" />
    <glyph glyph-name="Umacron" unicode="&#x16a;" horiz-adv-x="1495" 
d="M474 1672v124h584v-124h-584zM744 -22q-574 0 -574 582v896h191v-900q0 -214 97 -315.5t288 -101.5q386 0 386 413v904h190v-894q0 -133 -32 -237t-99 -183.5t-180 -121.5t-267 -42z" />
    <glyph glyph-name="umacron" unicode="&#x16b;" horiz-adv-x="1235" 
d="M555 -23q-197 0 -296 112.5t-99 302.5v634h183v-634q0 -132 62.5 -198.5t180.5 -66.5q135 0 211 77t76 199v623h184v-772q0 -137 9 -254h-187l-5 165q-43 -79 -122 -133.5t-197 -54.5zM335 1242v124h584v-124h-584z" />
    <glyph glyph-name="Ubreve" unicode="&#x16c;" horiz-adv-x="1495" 
d="M742 1610q-130 0 -199.5 63t-78.5 197h131q5 -70 42 -99t105 -29q65 0 101 29.5t43 98.5h129q-17 -260 -273 -260zM744 -22q-574 0 -574 582v896h191v-900q0 -214 97 -315.5t288 -101.5q386 0 386 413v904h190v-894q0 -133 -32 -237t-99 -183.5t-180 -121.5t-267 -42z
" />
    <glyph glyph-name="ubreve" unicode="&#x16d;" horiz-adv-x="1235" 
d="M555 -23q-197 0 -296 112.5t-99 302.5v634h183v-634q0 -132 62.5 -198.5t180.5 -66.5q135 0 211 77t76 199v623h184v-772q0 -137 9 -254h-187l-5 165q-43 -79 -122 -133.5t-197 -54.5zM603 1180q-130 0 -199.5 63t-78.5 197h131q5 -70 42 -99t105 -29q65 0 101 29.5
t43 98.5h129q-17 -260 -273 -260z" />
    <glyph glyph-name="Uring" unicode="&#x16e;" horiz-adv-x="1495" 
d="M747 1567q-85 0 -143 56t-58 139q0 84 58 139.5t143 55.5t143 -55.5t58 -139.5q0 -83 -58 -139t-143 -56zM746 1652q44 0 75 32t31 78t-31 78t-75 32t-75 -32t-31 -78t31 -78t75 -32zM744 -22q-574 0 -574 582v896h191v-900q0 -214 97 -315.5t288 -101.5q386 0 386 413
v904h190v-894q0 -133 -32 -237t-99 -183.5t-180 -121.5t-267 -42z" />
    <glyph glyph-name="uring" unicode="&#x16f;" horiz-adv-x="1235" 
d="M555 -23q-197 0 -296 112.5t-99 302.5v634h183v-634q0 -132 62.5 -198.5t180.5 -66.5q135 0 211 77t76 199v623h184v-772q0 -137 9 -254h-187l-5 165q-43 -79 -122 -133.5t-197 -54.5zM608 1137q-85 0 -143 56t-58 139q0 84 58 139.5t143 55.5t143 -55.5t58 -139.5
q0 -83 -58 -139t-143 -56zM607 1222q44 0 75 32t31 78t-31 78t-75 32t-75 -32t-31 -78t31 -78t75 -32z" />
    <glyph glyph-name="Uhungarumlaut" unicode="&#x170;" horiz-adv-x="1495" 
d="M873 1590l241 372h208l-312 -372h-137zM549 1590l212 372h199l-278 -372h-133zM744 -22q-574 0 -574 582v896h191v-900q0 -214 97 -315.5t288 -101.5q386 0 386 413v904h190v-894q0 -133 -32 -237t-99 -183.5t-180 -121.5t-267 -42z" />
    <glyph glyph-name="uhungarumlaut" unicode="&#x171;" horiz-adv-x="1235" 
d="M555 -23q-197 0 -296 112.5t-99 302.5v634h183v-634q0 -132 62.5 -198.5t180.5 -66.5q135 0 211 77t76 199v623h184v-772q0 -137 9 -254h-187l-5 165q-43 -79 -122 -133.5t-197 -54.5zM734 1160l241 372h208l-312 -372h-137zM410 1160l212 372h199l-278 -372h-133z" />
    <glyph glyph-name="Uogonek" unicode="&#x172;" horiz-adv-x="1495" 
d="M775 -424q-100 0 -166.5 45.5t-66.5 128.5q0 79 65 149t152 116l105 -5q-69 -45 -115.5 -112.5t-46.5 -118.5q0 -41 28.5 -63.5t85.5 -22.5q50 0 133 23v-112q-89 -28 -174 -28zM744 -22q-574 0 -574 582v896h191v-900q0 -214 97 -315.5t288 -101.5q386 0 386 413v904
h190v-894q0 -133 -32 -237t-99 -183.5t-180 -121.5t-267 -42z" />
    <glyph glyph-name="uogonek" unicode="&#x173;" horiz-adv-x="1235" 
d="M555 -23q-197 0 -296 112.5t-99 302.5v634h183v-634q0 -132 62.5 -198.5t180.5 -66.5q135 0 211 77t76 199v623h184v-772q0 -137 9 -254h-187l-5 165q-43 -79 -122 -133.5t-197 -54.5zM955 -424q-100 0 -166.5 45.5t-66.5 128.5q0 79 65 149t152 116l105 -5
q-69 -45 -115.5 -112.5t-46.5 -118.5q0 -41 28.5 -63.5t85.5 -22.5q50 0 133 23v-112q-89 -28 -174 -28z" />
    <glyph glyph-name="Wcircumflex" unicode="&#x174;" horiz-adv-x="2022" 
d="M710 1584l234 347h162l236 -347h-156l-162 218l-164 -218h-150zM440 0l-398 1456h205l257 -1004l54 -235q67 249 207 712.5t158 526.5h191q19 -62 159 -525.5t210 -710.5q55 247 169 707t131 529h197l-387 -1456h-223l-355 1199l-355 -1199h-220z" />
    <glyph glyph-name="wcircumflex" unicode="&#x175;" horiz-adv-x="1636" 
d="M372 0l-341 1026h196q15 -50 106 -350.5t140 -459.5q53 159 153.5 456t119.5 354h179q18 -56 115 -354.5t149 -456.5q47 158 133.5 455t103.5 356h179l-341 -1026h-173q-13 39 -113 341.5t-152 461.5q-54 -160 -160.5 -459.5t-121.5 -343.5h-172zM528 1154l234 347h162
l236 -347h-156l-162 218l-164 -218h-150z" />
    <glyph glyph-name="Ycircumflex" unicode="&#x176;" horiz-adv-x="1239" 
d="M328 1584l234 347h162l236 -347h-156l-162 218l-164 -218h-150zM522 0v575l-501 881h212l389 -713l391 713h213l-512 -878v-578h-192z" />
    <glyph glyph-name="ycircumflex" unicode="&#x177;" horiz-adv-x="1065" 
d="M209 -433l-75 126q249 83 309 263l17 52l-419 1018h193l317 -820l297 820h185l-414 -1080q-55 -145 -160.5 -244t-249.5 -135zM238 1154l234 347h162l236 -347h-156l-162 218l-164 -218h-150z" />
    <glyph glyph-name="Ydieresis" unicode="&#x178;" horiz-adv-x="1239" 
d="M749 1612v189h186v-189h-186zM346 1612v189h187v-189h-187zM522 0v575l-501 881h212l389 -713l391 713h213l-512 -878v-578h-192z" />
    <glyph glyph-name="Zacute" unicode="&#x179;" horiz-adv-x="1184" 
d="M542 1602l236 360h237l-319 -360h-154zM97 0v103l738 1192h-707v161h963v-99l-744 -1196h740v-161h-990z" />
    <glyph glyph-name="zacute" unicode="&#x17a;" horiz-adv-x="969" 
d="M104 0v100l536 777h-520v149h757v-98l-535 -780h551v-148h-789zM438 1172l236 360h237l-319 -360h-154z" />
    <glyph glyph-name="Zdotaccent" unicode="&#x17b;" horiz-adv-x="1184" 
d="M514 1686v182h188v-182h-188zM97 0v103l738 1192h-707v161h963v-99l-744 -1196h740v-161h-990z" />
    <glyph glyph-name="zdotaccent" unicode="&#x17c;" horiz-adv-x="969" 
d="M104 0v100l536 777h-520v149h757v-98l-535 -780h551v-148h-789zM409 1256v182h188v-182h-188z" />
    <glyph glyph-name="Zcaron" unicode="&#x17d;" horiz-adv-x="1184" 
d="M529 1584l-247 351h164l162 -230l163 230h168l-246 -351h-164zM97 0v103l738 1192h-707v161h963v-99l-744 -1196h740v-161h-990z" />
    <glyph glyph-name="zcaron" unicode="&#x17e;" horiz-adv-x="969" 
d="M104 0v100l536 777h-520v149h757v-98l-535 -780h551v-148h-789zM425 1154l-247 351h164l162 -230l163 230h168l-246 -351h-164z" />
    <glyph glyph-name="longs" unicode="&#x17f;" horiz-adv-x="978" 
d="M518 -22q-133 0 -234.5 40t-157.5 84l51 137q57 -42 145.5 -76t180.5 -34q204 0 204 150q0 63 -46 94t-179 76l-88 30q-51 18 -86.5 34t-71.5 40.5t-58 53t-35.5 69t-13.5 91.5q0 73 30.5 129.5t83.5 89t117 49t138 16.5q203 0 342 -89l-51 -132q-135 72 -270 72
q-99 0 -153 -34t-54 -96q0 -56 32.5 -82.5t129.5 -61.5q87 -29 103 -35q63 -22 101 -38t81.5 -42.5t67 -55.5t39 -72.5t15.5 -98.5q0 -82 -31 -143.5t-84 -96t-115 -51.5t-133 -17z" />
    <glyph glyph-name="florin" unicode="&#x192;" horiz-adv-x="1070" 
d="M201 -299q-44 0 -105 17l14 125q38 -10 71 -10q143 0 178 201l141 781h-153l22 120h152l35 191q10 57 22.5 101t38 91.5t60 79t89.5 51.5t125 20q39 0 79 -8.5t60 -16.5l20 -9l-16 -122q-65 20 -116 20q-78 0 -120 -42t-60 -134l-45 -222h214l-23 -120h-212l-131 -729
q-14 -81 -29.5 -136.5t-41 -106t-60.5 -79.5t-87 -46t-122 -17z" />
    <glyph glyph-name="uni01C4" unicode="&#x1c4;" horiz-adv-x="2723" 
d="M2068 1584l-247 351h164l162 -230l163 230h168l-246 -351h-164zM1636 0v103l738 1192h-707v161h963v-99l-744 -1196h740v-161h-990zM202 0v1456h358q422 0 645 -179t223 -551q0 -348 -207 -537t-596 -189h-423zM393 161h242q292 0 441.5 147.5t149.5 417.5
q0 291 -159.5 430t-488.5 139h-185v-1134z" />
    <glyph glyph-name="uni01C5" unicode="&#x1c5;" horiz-adv-x="2508" 
d="M1643 0v100l536 777h-520v149h757v-98l-535 -780h551v-148h-789zM1964 1154l-247 351h164l162 -230l163 230h168l-246 -351h-164zM202 0v1456h358q422 0 645 -179t223 -551q0 -348 -207 -537t-596 -189h-423zM393 161h242q292 0 441.5 147.5t149.5 417.5
q0 291 -159.5 430t-488.5 139h-185v-1134z" />
    <glyph glyph-name="uni01C6" unicode="&#x1c6;" horiz-adv-x="2233" 
d="M1368 0v100l536 777h-520v149h757v-98l-535 -780h551v-148h-789zM1689 1154l-247 351h164l162 -230l163 230h168l-246 -351h-164zM597 128q151 0 233 107t82 287q0 169 -83 274.5t-229 105.5t-227 -106.5t-81 -281.5q0 -174 79 -280t226 -106zM570 -22
q-206 0 -337.5 145.5t-131.5 386.5q0 158 56 279.5t165.5 192t257.5 70.5q118 0 206 -53t122 -127v614h185v-1220q1 -92 7 -266h-187l-4 174q-31 -80 -119.5 -138t-219.5 -58z" />
    <glyph glyph-name="uni01C7" unicode="&#x1c7;" horiz-adv-x="1895" 
d="M202 0v1456h191v-1295h677v-161h-868zM1338 -326q-110 0 -236 42l27 150q105 -31 184 -31q111 0 152 65.5t41 219.5v1336h191v-1335q0 -231 -90 -339t-269 -108z" />
    <glyph glyph-name="uni01C8" unicode="&#x1c8;" horiz-adv-x="1612" 
d="M1272 1277v179h183v-179h-183zM1130 -423q-64 0 -127 12v151q52 -12 88 -12q94 0 140.5 75t46.5 233v990h174v-922q0 -56 -2.5 -102.5t-10.5 -102.5t-21.5 -100t-38 -87t-57.5 -71.5t-82 -46t-110 -17.5zM202 0v1456h191v-1295h677v-161h-868z" />
    <glyph glyph-name="uni01C9" unicode="&#x1c9;" horiz-adv-x="1029" 
d="M177 0v1486h184v-1486h-184zM689 1277v179h183v-179h-183zM547 -423q-64 0 -127 12v151q52 -12 88 -12q94 0 140.5 75t46.5 233v990h174v-922q0 -56 -2.5 -102.5t-10.5 -102.5t-21.5 -100t-38 -87t-57.5 -71.5t-82 -46t-110 -17.5z" />
    <glyph glyph-name="uni01CA" unicode="&#x1ca;" horiz-adv-x="2384" 
d="M202 0v1456h203l702 -1024l108 -170v1194h182v-1456h-204l-684 986l-128 200v-1186h-179zM1827 -326q-110 0 -236 42l27 150q105 -31 184 -31q111 0 152 65.5t41 219.5v1336h191v-1335q0 -231 -90 -339t-269 -108z" />
    <glyph glyph-name="uni01CB" unicode="&#x1cb;" horiz-adv-x="2101" 
d="M1761 1277v179h183v-179h-183zM1619 -423q-64 0 -127 12v151q52 -12 88 -12q94 0 140.5 75t46.5 233v990h174v-922q0 -56 -2.5 -102.5t-10.5 -102.5t-21.5 -100t-38 -87t-57.5 -71.5t-82 -46t-110 -17.5zM202 0v1456h203l702 -1024l108 -170v1194h182v-1456h-204
l-684 986l-128 200v-1186h-179z" />
    <glyph glyph-name="uni01CC" unicode="&#x1cc;" horiz-adv-x="1747" 
d="M177 0v742q0 68 -2.5 139t-5.5 108l-3 37h190l2 -161q53 88 148.5 137.5t201.5 49.5q194 0 286 -117.5t92 -356.5v-578h-184v577q0 167 -50 246t-176 79q-116 0 -211 -78.5t-103 -180.5v-643h-185zM1407 1277v179h183v-179h-183zM1265 -423q-64 0 -127 12v151
q52 -12 88 -12q94 0 140.5 75t46.5 233v990h174v-922q0 -56 -2.5 -102.5t-10.5 -102.5t-21.5 -100t-38 -87t-57.5 -71.5t-82 -46t-110 -17.5z" />
    <glyph glyph-name="uni01CD" unicode="&#x1cd;" 
d="M618 1584l-247 351h164l162 -230l163 230h168l-246 -351h-164zM438 545h514q-127 359 -256 711q-130 -357 -258 -711zM31 0l565 1456h204l568 -1456h-209l-150 389h-623l-147 -389h-208z" />
    <glyph glyph-name="uni01CE" unicode="&#x1ce;" horiz-adv-x="1273" 
d="M512 1154l-247 351h164l162 -230l163 230h168l-246 -351h-164zM615 128q153 0 233.5 106.5t80.5 286.5q0 170 -82 275.5t-234 105.5q-160 0 -243.5 -106t-83.5 -278q0 -173 84 -281.5t245 -108.5zM589 -22q-115 0 -208.5 43t-154 116.5t-93 170t-32.5 205.5
q0 150 58.5 271.5t170.5 194.5t259 73q109 0 198.5 -53t135.5 -136v163h182v-1026h-184v175q-44 -92 -131 -144.5t-201 -52.5z" />
    <glyph glyph-name="uni01CF" unicode="&#x1cf;" horiz-adv-x="602" 
d="M240 1584l-247 351h164l162 -230l163 230h168l-246 -351h-164zM218 0v1456h191v-1456h-191z" />
    <glyph glyph-name="uni01D0" unicode="&#x1d0;" horiz-adv-x="534" 
d="M177 0l-1 1026h185l1 -1026h-185zM187 1154l-247 351h164l162 -230l163 230h168l-246 -351h-164z" />
    <glyph glyph-name="uni01D1" unicode="&#x1d1;" horiz-adv-x="1626" 
d="M736 1584l-247 351h164l162 -230l163 230h168l-246 -351h-164zM816 -22q-330 0 -519.5 203t-189.5 548q0 223 83.5 392.5t245.5 265t382 95.5q321 0 511.5 -207.5t190.5 -545.5q0 -344 -188 -547.5t-516 -203.5zM814 139q244 0 371 157.5t127 432.5q0 269 -127.5 430.5
t-368.5 161.5q-240 0 -372.5 -162.5t-132.5 -429.5q0 -274 130 -432t373 -158z" />
    <glyph glyph-name="uni01D2" unicode="&#x1d2;" horiz-adv-x="1258" 
d="M631 -22q-249 0 -389.5 148t-140.5 386q0 242 141.5 391t390.5 149q248 0 386 -148.5t138 -391.5q0 -238 -140 -386t-386 -148zM631 128q162 0 247.5 105t85.5 279q0 177 -86.5 283.5t-247.5 106.5q-162 0 -249 -106.5t-87 -283.5q0 -174 86.5 -279t250.5 -105zM552 1154
l-247 351h164l162 -230l163 230h168l-246 -351h-164z" />
    <glyph glyph-name="uni01D3" unicode="&#x1d3;" horiz-adv-x="1495" 
d="M666 1584l-247 351h164l162 -230l163 230h168l-246 -351h-164zM744 -22q-574 0 -574 582v896h191v-900q0 -214 97 -315.5t288 -101.5q386 0 386 413v904h190v-894q0 -133 -32 -237t-99 -183.5t-180 -121.5t-267 -42z" />
    <glyph glyph-name="uni01D4" unicode="&#x1d4;" horiz-adv-x="1235" 
d="M555 -23q-197 0 -296 112.5t-99 302.5v634h183v-634q0 -132 62.5 -198.5t180.5 -66.5q135 0 211 77t76 199v623h184v-772q0 -137 9 -254h-187l-5 165q-43 -79 -122 -133.5t-197 -54.5zM527 1154l-247 351h164l162 -230l163 230h168l-246 -351h-164z" />
    <glyph glyph-name="uni01E2" unicode="&#x1e2;" horiz-adv-x="2062" 
d="M1077 1672v124h584v-124h-584zM546 548h523l-55 743h-48zM25 0l844 1456h1018v-165h-689l39 -462h618v-158h-602l46 -508h613v-163h-794l-35 401h-612l-228 -401h-218z" />
    <glyph glyph-name="uni01E3" unicode="&#x1e3;" horiz-adv-x="1791" 
d="M629 1242v124h584v-124h-584zM978 612h553l-2 16q-12 123 -82 200t-185 77q-122 0 -195.5 -84.5t-88.5 -208.5zM482 126q80 0 141 30t96.5 81.5t53 114t18.5 133.5h-153q-83 0 -146.5 -9t-115.5 -29.5t-79.5 -59t-27.5 -93.5q0 -86 60 -127t153 -41zM1285 -22
q-139 0 -245.5 66t-158.5 182q-52 -111 -160.5 -180.5t-252.5 -69.5q-172 0 -277 82.5t-105 226.5q0 70 19.5 123.5t60 89.5t92.5 59.5t128 36t153.5 17t181.5 4.5h68q0 131 -67 210t-191 79q-147 0 -322 -82l-55 130q182 101 403 101q71 0 138 -23.5t122.5 -73t80.5 -116.5
q57 99 150 156t210 57q139 0 238 -68t148 -186t49 -276l-2 -37h-714v-27q8 -228 163 -301q66 -30 153 -30q37 0 75 6t68 16t58 21.5t48 23.5t35.5 22t22.5 16l8 6l54 -134q-6 -5 -16.5 -13.5t-47 -30.5t-77.5 -39t-105 -30.5t-131 -13.5z" />
    <glyph glyph-name="Gcaron" unicode="&#x1e6;" horiz-adv-x="1527" 
d="M752 1584l-247 351h164l162 -230l163 230h168l-246 -351h-164zM844 -22q-235 0 -402 90.5t-250.5 253t-83.5 382.5q0 224 94.5 401t266.5 277t392 100q283 0 479 -146l-77 -133q-173 118 -398 118q-166 0 -294 -79t-196.5 -217.5t-68.5 -312.5q0 -262 140 -417.5
t406 -155.5q181 0 318 52v412h-368v163h558v-682q-232 -106 -516 -106z" />
    <glyph glyph-name="gcaron" unicode="&#x1e7;" horiz-adv-x="1267" 
d="M594 158q156 0 237 101.5t81 272.5q0 169 -80.5 269.5t-224.5 100.5q-147 0 -231 -106t-84 -278q0 -171 79 -265.5t223 -94.5zM571 -418q-202 0 -379 87l29 159q170 -97 343 -97q164 0 254 88t90 266v107q-43 -77 -124.5 -127.5t-200.5 -50.5q-213 0 -347.5 135.5
t-134.5 366.5q0 157 54.5 277t164.5 189.5t262 69.5q117 0 199 -50t127 -128l3 152h190q-11 -166 -11 -276v-610q0 -122 -30 -222t-91.5 -176t-162.5 -118t-235 -42zM471 1154l-247 351h164l162 -230l163 230h168l-246 -351h-164z" />
    <glyph glyph-name="uni01E8" unicode="&#x1e8;" horiz-adv-x="1295" 
d="M590 1584l-247 351h164l162 -230l163 230h168l-246 -351h-164zM202 0v1456h191v-656l627 656h237l-673 -701l721 -755h-242l-670 692v-692h-191z" />
    <glyph glyph-name="uni01E9" unicode="&#x1e9;" horiz-adv-x="1111" 
d="M174 0v1486h184v-899l445 439h252l-520 -489l556 -537h-244l-489 485v-485h-184zM615 1154l-247 351h164l162 -230l163 230h168l-246 -351h-164z" />
    <glyph glyph-name="uni01EA" unicode="&#x1ea;" horiz-adv-x="1626" 
d="M851 -424q-100 0 -166.5 45.5t-66.5 128.5q0 79 65 149t152 116l105 -5q-69 -45 -115.5 -112.5t-46.5 -118.5q0 -41 28.5 -63.5t85.5 -22.5q50 0 133 23v-112q-89 -28 -174 -28zM816 -22q-330 0 -519.5 203t-189.5 548q0 223 83.5 392.5t245.5 265t382 95.5
q321 0 511.5 -207.5t190.5 -545.5q0 -344 -188 -547.5t-516 -203.5zM814 139q244 0 371 157.5t127 432.5q0 269 -127.5 430.5t-368.5 161.5q-240 0 -372.5 -162.5t-132.5 -429.5q0 -274 130 -432t373 -158z" />
    <glyph glyph-name="uni01EB" unicode="&#x1eb;" horiz-adv-x="1258" 
d="M621 -424q-100 0 -166.5 45.5t-66.5 128.5q0 79 65 149t152 116l105 -5q-69 -45 -115.5 -112.5t-46.5 -118.5q0 -41 28.5 -63.5t85.5 -22.5q50 0 133 23v-112q-89 -28 -174 -28zM631 -22q-249 0 -389.5 148t-140.5 386q0 242 141.5 391t390.5 149q248 0 386 -148.5
t138 -391.5q0 -238 -140 -386t-386 -148zM631 128q162 0 247.5 105t85.5 279q0 177 -86.5 283.5t-247.5 106.5q-162 0 -249 -106.5t-87 -283.5q0 -174 86.5 -279t250.5 -105z" />
    <glyph glyph-name="uni01F0" unicode="&#x1f0;" horiz-adv-x="503" 
d="M21 -423q-64 0 -127 12v151q52 -12 88 -12q94 0 140.5 75t46.5 233v990h174v-922q0 -56 -2.5 -102.5t-10.5 -102.5t-21.5 -100t-38 -87t-57.5 -71.5t-82 -46t-110 -17.5zM178 1154l-247 351h164l162 -230l163 230h168l-246 -351h-164z" />
    <glyph glyph-name="uni01F1" unicode="&#x1f1;" horiz-adv-x="2724" 
d="M1636 0v103l738 1192h-707v161h963v-99l-744 -1196h740v-161h-990zM202 0v1456h358q422 0 645 -179t223 -551q0 -348 -207 -537t-596 -189h-423zM393 161h242q292 0 441.5 147.5t149.5 417.5q0 291 -159.5 430t-488.5 139h-185v-1134z" />
    <glyph glyph-name="uni01F2" unicode="&#x1f2;" horiz-adv-x="2508" 
d="M1643 0v100l536 777h-520v149h757v-98l-535 -780h551v-148h-789zM202 0v1456h358q422 0 645 -179t223 -551q0 -348 -207 -537t-596 -189h-423zM393 161h242q292 0 441.5 147.5t149.5 417.5q0 291 -159.5 430t-488.5 139h-185v-1134z" />
    <glyph glyph-name="uni01F3" unicode="&#x1f3;" horiz-adv-x="2233" 
d="M1368 0v100l536 777h-520v149h757v-98l-535 -780h551v-148h-789zM597 128q151 0 233 107t82 287q0 169 -83 274.5t-229 105.5t-227 -106.5t-81 -281.5q0 -174 79 -280t226 -106zM570 -22q-206 0 -337.5 145.5t-131.5 386.5q0 158 56 279.5t165.5 192t257.5 70.5
q118 0 206 -53t122 -127v614h185v-1220q1 -92 7 -266h-187l-4 174q-31 -80 -119.5 -138t-219.5 -58z" />
    <glyph glyph-name="uni01F4" unicode="&#x1f4;" horiz-adv-x="1527" 
d="M765 1602l236 360h237l-319 -360h-154zM844 -22q-235 0 -402 90.5t-250.5 253t-83.5 382.5q0 224 94.5 401t266.5 277t392 100q283 0 479 -146l-77 -133q-173 118 -398 118q-166 0 -294 -79t-196.5 -217.5t-68.5 -312.5q0 -262 140 -417.5t406 -155.5q181 0 318 52v412
h-368v163h558v-682q-232 -106 -516 -106z" />
    <glyph glyph-name="uni01F5" unicode="&#x1f5;" horiz-adv-x="1267" 
d="M594 158q156 0 237 101.5t81 272.5q0 169 -80.5 269.5t-224.5 100.5q-147 0 -231 -106t-84 -278q0 -171 79 -265.5t223 -94.5zM571 -418q-202 0 -379 87l29 159q170 -97 343 -97q164 0 254 88t90 266v107q-43 -77 -124.5 -127.5t-200.5 -50.5q-213 0 -347.5 135.5
t-134.5 366.5q0 157 54.5 277t164.5 189.5t262 69.5q117 0 199 -50t127 -128l3 152h190q-11 -166 -11 -276v-610q0 -122 -30 -222t-91.5 -176t-162.5 -118t-235 -42zM484 1172l236 360h237l-319 -360h-154z" />
    <glyph glyph-name="uni01F8" unicode="&#x1f8;" horiz-adv-x="1598" 
d="M729 1603l-337 360h240l250 -360h-153zM202 0v1456h203l702 -1024l108 -170v1194h182v-1456h-204l-684 986l-128 200v-1186h-179z" />
    <glyph glyph-name="uni01F9" unicode="&#x1f9;" horiz-adv-x="1244" 
d="M177 0v742q0 68 -2.5 139t-5.5 108l-3 37h190l2 -161q53 88 148.5 137.5t201.5 49.5q194 0 286 -117.5t92 -356.5v-578h-184v577q0 167 -50 246t-176 79q-116 0 -211 -78.5t-103 -180.5v-643h-185zM605 1173l-337 360h240l250 -360h-153z" />
    <glyph glyph-name="Aringacute" unicode="&#x1fa;" 
d="M698 1567q-85 0 -143 56t-58 139q0 84 58 139.5t143 55.5t143 -55.5t58 -139.5q0 -83 -58 -139t-143 -56zM697 1652q44 0 75 32t31 78t-31 78t-75 32t-75 -32t-31 -78t31 -78t75 -32zM630 2052l236 360h237l-319 -360h-154zM438 545h514q-127 359 -256 711
q-130 -357 -258 -711zM31 0l565 1456h204l568 -1456h-209l-150 389h-623l-147 -389h-208z" />
    <glyph glyph-name="aringacute" unicode="&#x1fb;" horiz-adv-x="1273" 
d="M592 1137q-85 0 -143 56t-58 139q0 84 58 139.5t143 55.5t143 -55.5t58 -139.5q0 -83 -58 -139t-143 -56zM591 1222q44 0 75 32t31 78t-31 78t-75 32t-75 -32t-31 -78t31 -78t75 -32zM524 1622l236 360h237l-319 -360h-154zM615 128q153 0 233.5 106.5t80.5 286.5
q0 170 -82 275.5t-234 105.5q-160 0 -243.5 -106t-83.5 -278q0 -173 84 -281.5t245 -108.5zM589 -22q-115 0 -208.5 43t-154 116.5t-93 170t-32.5 205.5q0 150 58.5 271.5t170.5 194.5t259 73q109 0 198.5 -53t135.5 -136v163h182v-1026h-184v175q-44 -92 -131 -144.5
t-201 -52.5z" />
    <glyph glyph-name="AEacute" unicode="&#x1fc;" horiz-adv-x="2062" 
d="M1282 1602l236 360h237l-319 -360h-154zM546 548h523l-55 743h-48zM25 0l844 1456h1018v-165h-689l39 -462h618v-158h-602l46 -508h613v-163h-794l-35 401h-612l-228 -401h-218z" />
    <glyph glyph-name="aeacute" unicode="&#x1fd;" horiz-adv-x="1791" 
d="M978 612h553l-2 16q-12 123 -82 200t-185 77q-122 0 -195.5 -84.5t-88.5 -208.5zM482 126q80 0 141 30t96.5 81.5t53 114t18.5 133.5h-153q-83 0 -146.5 -9t-115.5 -29.5t-79.5 -59t-27.5 -93.5q0 -86 60 -127t153 -41zM1285 -22q-139 0 -245.5 66t-158.5 182
q-52 -111 -160.5 -180.5t-252.5 -69.5q-172 0 -277 82.5t-105 226.5q0 70 19.5 123.5t60 89.5t92.5 59.5t128 36t153.5 17t181.5 4.5h68q0 131 -67 210t-191 79q-147 0 -322 -82l-55 130q182 101 403 101q71 0 138 -23.5t122.5 -73t80.5 -116.5q57 99 150 156t210 57
q139 0 238 -68t148 -186t49 -276l-2 -37h-714v-27q8 -228 163 -301q66 -30 153 -30q37 0 75 6t68 16t58 21.5t48 23.5t35.5 22t22.5 16l8 6l54 -134q-6 -5 -16.5 -13.5t-47 -30.5t-77.5 -39t-105 -30.5t-131 -13.5zM834 1172l236 360h237l-319 -360h-154z" />
    <glyph glyph-name="Oslashacute" unicode="&#x1fe;" horiz-adv-x="1626" 
d="M749 1602l236 360h237l-319 -360h-154zM816 -22q328 0 516 203.5t188 547.5q0 140 -35 262t-101.5 216.5t-160.5 158.5l85 159l-92 47l-83 -155q-69 32 -148.5 48.5t-166.5 16.5q-220 0 -382 -95.5t-245.5 -265t-83.5 -392.5q0 -221 80.5 -387.5t230.5 -260.5l-88 -164
l93 -48l88 165q136 -56 305 -56zM1139 1208q85 -77 129 -200t44 -279q0 -275 -127 -432.5t-371 -157.5q-125 0 -223 44zM1053 1268l-551 -1030q-94 75 -142.5 200.5t-48.5 290.5q0 267 132.5 429.5t372.5 162.5q34 0 66.5 -3.5t62 -10.5t56.5 -16.5t52 -22.5z" />
    <glyph glyph-name="oslashacute" unicode="&#x1ff;" horiz-adv-x="1254" 
d="M631 -22q246 0 386 148t140 386q0 83 -17 156.5t-49.5 135.5t-82 110.5t-112.5 80.5l88 194l-88 38l-89 -198q-40 12 -83.5 17.5t-90.5 5.5q-249 0 -390.5 -149t-141.5 -391q0 -161 66.5 -284.5t190.5 -188.5l-97 -215l87 -38l99 218q84 -26 184 -26zM827 843
q67 -50 102 -135t35 -196q0 -174 -85.5 -279t-247.5 -105q-33 0 -63 4.5t-57 13.5zM742 886l-315 -696q-66 49 -99.5 132t-33.5 190q0 177 87 283.5t249 106.5q60 0 112 -16zM565 1172l236 360h237l-319 -360h-154z" />
    <glyph glyph-name="uni0200" unicode="&#x200;" 
d="M826 1604l-283 393h180l225 -393h-122zM484 1604l-308 393h180l252 -393h-124zM438 545h514q-127 359 -256 711q-130 -357 -258 -711zM31 0l565 1456h204l568 -1456h-209l-150 389h-623l-147 -389h-208z" />
    <glyph glyph-name="uni0201" unicode="&#x201;" horiz-adv-x="1273" 
d="M720 1174l-283 393h180l225 -393h-122zM378 1174l-308 393h180l252 -393h-124zM615 128q153 0 233.5 106.5t80.5 286.5q0 170 -82 275.5t-234 105.5q-160 0 -243.5 -106t-83.5 -278q0 -173 84 -281.5t245 -108.5zM589 -22q-115 0 -208.5 43t-154 116.5t-93 170
t-32.5 205.5q0 150 58.5 271.5t170.5 194.5t259 73q109 0 198.5 -53t135.5 -136v163h182v-1026h-184v175q-44 -92 -131 -144.5t-201 -52.5z" />
    <glyph glyph-name="uni0202" unicode="&#x202;" 
d="M693 1870q130 0 199.5 -63t78.5 -197h-131q-5 70 -42 99t-105 29q-65 0 -101 -29.5t-43 -98.5h-129q17 260 273 260zM438 545h514q-127 359 -256 711q-130 -357 -258 -711zM31 0l565 1456h204l568 -1456h-209l-150 389h-623l-147 -389h-208z" />
    <glyph glyph-name="uni0203" unicode="&#x203;" horiz-adv-x="1273" 
d="M587 1440q130 0 199.5 -63t78.5 -197h-131q-5 70 -42 99t-105 29q-65 0 -101 -29.5t-43 -98.5h-129q17 260 273 260zM615 128q153 0 233.5 106.5t80.5 286.5q0 170 -82 275.5t-234 105.5q-160 0 -243.5 -106t-83.5 -278q0 -173 84 -281.5t245 -108.5zM589 -22
q-115 0 -208.5 43t-154 116.5t-93 170t-32.5 205.5q0 150 58.5 271.5t170.5 194.5t259 73q109 0 198.5 -53t135.5 -136v163h182v-1026h-184v175q-44 -92 -131 -144.5t-201 -52.5z" />
    <glyph glyph-name="uni0204" unicode="&#x204;" horiz-adv-x="1205" 
d="M772 1604l-283 393h180l225 -393h-122zM430 1604l-308 393h180l252 -393h-124zM202 0v1456h872v-161h-681v-458h643v-162h-643v-514h710v-161h-901z" />
    <glyph glyph-name="uni0205" unicode="&#x205;" horiz-adv-x="1166" 
d="M718 1174l-283 393h180l225 -393h-122zM376 1174l-308 393h180l252 -393h-124zM296 613h589q-10 141 -82 217t-192 76q-126 0 -210.5 -78t-104.5 -215zM634 -22q-245 0 -389 145.5t-144 386.5q0 237 138.5 389.5t366.5 152.5q144 0 246.5 -67t152 -182t49.5 -267
q0 -19 -3 -49h-760q3 -172 99 -265.5t254 -93.5q184 0 326 114l55 -136q-165 -128 -391 -128z" />
    <glyph glyph-name="uni0206" unicode="&#x206;" horiz-adv-x="1205" 
d="M640 1870q130 0 199.5 -63t78.5 -197h-131q-5 70 -42 99t-105 29q-65 0 -101 -29.5t-43 -98.5h-129q17 260 273 260zM202 0v1456h872v-161h-681v-458h643v-162h-643v-514h710v-161h-901z" />
    <glyph glyph-name="uni0207" unicode="&#x207;" horiz-adv-x="1166" 
d="M585 1440q130 0 199.5 -63t78.5 -197h-131q-5 70 -42 99t-105 29q-65 0 -101 -29.5t-43 -98.5h-129q17 260 273 260zM296 613h589q-10 141 -82 217t-192 76q-126 0 -210.5 -78t-104.5 -215zM634 -22q-245 0 -389 145.5t-144 386.5q0 237 138.5 389.5t366.5 152.5
q144 0 246.5 -67t152 -182t49.5 -267q0 -19 -3 -49h-760q3 -172 99 -265.5t254 -93.5q184 0 326 114l55 -136q-165 -128 -391 -128z" />
    <glyph glyph-name="uni0208" unicode="&#x208;" horiz-adv-x="602" 
d="M448 1604l-283 393h180l225 -393h-122zM106 1604l-308 393h180l252 -393h-124zM218 0v1456h191v-1456h-191z" />
    <glyph glyph-name="uni0209" unicode="&#x209;" horiz-adv-x="533" 
d="M395 1174l-283 393h180l225 -393h-122zM53 1174l-308 393h180l252 -393h-124zM177 0l-1 1026h185l1 -1026h-185z" />
    <glyph glyph-name="uni020A" unicode="&#x20a;" horiz-adv-x="602" 
d="M315 1870q130 0 199.5 -63t78.5 -197h-131q-5 70 -42 99t-105 29q-65 0 -101 -29.5t-43 -98.5h-129q17 260 273 260zM218 0v1456h191v-1456h-191z" />
    <glyph glyph-name="uni020B" unicode="&#x20b;" horiz-adv-x="533" 
d="M262 1440q130 0 199.5 -63t78.5 -197h-131q-5 70 -42 99t-105 29q-65 0 -101 -29.5t-43 -98.5h-129q17 260 273 260zM177 0l-1 1026h185l1 -1026h-185z" />
    <glyph glyph-name="uni020C" unicode="&#x20c;" horiz-adv-x="1626" 
d="M944 1604l-283 393h180l225 -393h-122zM602 1604l-308 393h180l252 -393h-124zM816 -22q-330 0 -519.5 203t-189.5 548q0 223 83.5 392.5t245.5 265t382 95.5q321 0 511.5 -207.5t190.5 -545.5q0 -344 -188 -547.5t-516 -203.5zM814 139q244 0 371 157.5t127 432.5
q0 269 -127.5 430.5t-368.5 161.5q-240 0 -372.5 -162.5t-132.5 -429.5q0 -274 130 -432t373 -158z" />
    <glyph glyph-name="uni020D" unicode="&#x20d;" horiz-adv-x="1258" 
d="M760 1174l-283 393h180l225 -393h-122zM418 1174l-308 393h180l252 -393h-124zM631 -22q-249 0 -389.5 148t-140.5 386q0 242 141.5 391t390.5 149q248 0 386 -148.5t138 -391.5q0 -238 -140 -386t-386 -148zM631 128q162 0 247.5 105t85.5 279q0 177 -86.5 283.5
t-247.5 106.5q-162 0 -249 -106.5t-87 -283.5q0 -174 86.5 -279t250.5 -105z" />
    <glyph glyph-name="uni020E" unicode="&#x20e;" horiz-adv-x="1626" 
d="M812 1870q130 0 199.5 -63t78.5 -197h-131q-5 70 -42 99t-105 29q-65 0 -101 -29.5t-43 -98.5h-129q17 260 273 260zM816 -22q-330 0 -519.5 203t-189.5 548q0 223 83.5 392.5t245.5 265t382 95.5q321 0 511.5 -207.5t190.5 -545.5q0 -344 -188 -547.5t-516 -203.5z
M814 139q244 0 371 157.5t127 432.5q0 269 -127.5 430.5t-368.5 161.5q-240 0 -372.5 -162.5t-132.5 -429.5q0 -274 130 -432t373 -158z" />
    <glyph glyph-name="uni020F" unicode="&#x20f;" horiz-adv-x="1258" 
d="M627 1440q130 0 199.5 -63t78.5 -197h-131q-5 70 -42 99t-105 29q-65 0 -101 -29.5t-43 -98.5h-129q17 260 273 260zM631 -22q-249 0 -389.5 148t-140.5 386q0 242 141.5 391t390.5 149q248 0 386 -148.5t138 -391.5q0 -238 -140 -386t-386 -148zM631 128
q162 0 247.5 105t85.5 279q0 177 -86.5 283.5t-247.5 106.5q-162 0 -249 -106.5t-87 -283.5q0 -174 86.5 -279t250.5 -105z" />
    <glyph glyph-name="uni0210" unicode="&#x210;" horiz-adv-x="1362" 
d="M779 1604l-283 393h180l225 -393h-122zM437 1604l-308 393h180l252 -393h-124zM392 808h271q145 0 225 57.5t80 192.5q0 55 -11.5 95.5t-33 67.5t-57 43.5t-79.5 23.5t-104 7h-3.5h-3.5h-4h-280v-487zM202 0v1456h466q90 0 161 -9.5t136.5 -35.5t108.5 -68.5t68.5 -111.5
t25.5 -162q0 -137 -70 -229t-213 -122q82 -26 129.5 -90.5t96.5 -187.5l171 -440h-204l-160 428q-34 92 -62.5 135t-74.5 63.5t-127 20.5h-261v-647h-191z" />
    <glyph glyph-name="uni0211" unicode="&#x211;" horiz-adv-x="803" 
d="M645 1174l-283 393h180l225 -393h-122zM303 1174l-308 393h180l252 -393h-124zM179 0v774q0 34 -3.5 97t-6.5 109l-3 46h195l2 -160q93 184 274 184q57 0 104 -12l-1 -163q-59 16 -113 16q-118 0 -190 -82.5t-72 -237.5v-571h-186z" />
    <glyph glyph-name="uni0212" unicode="&#x212;" horiz-adv-x="1362" 
d="M646 1870q130 0 199.5 -63t78.5 -197h-131q-5 70 -42 99t-105 29q-65 0 -101 -29.5t-43 -98.5h-129q17 260 273 260zM392 808h271q145 0 225 57.5t80 192.5q0 55 -11.5 95.5t-33 67.5t-57 43.5t-79.5 23.5t-104 7h-3.5h-3.5h-4h-280v-487zM202 0v1456h466q90 0 161 -9.5
t136.5 -35.5t108.5 -68.5t68.5 -111.5t25.5 -162q0 -137 -70 -229t-213 -122q82 -26 129.5 -90.5t96.5 -187.5l171 -440h-204l-160 428q-34 92 -62.5 135t-74.5 63.5t-127 20.5h-261v-647h-191z" />
    <glyph glyph-name="uni0213" unicode="&#x213;" horiz-adv-x="803" 
d="M512 1440q130 0 199.5 -63t78.5 -197h-131q-5 70 -42 99t-105 29q-65 0 -101 -29.5t-43 -98.5h-129q17 260 273 260zM179 0v774q0 34 -3.5 97t-6.5 109l-3 46h195l2 -160q93 184 274 184q57 0 104 -12l-1 -163q-59 16 -113 16q-118 0 -190 -82.5t-72 -237.5v-571h-186z
" />
    <glyph glyph-name="uni0214" unicode="&#x214;" horiz-adv-x="1495" 
d="M874 1604l-283 393h180l225 -393h-122zM532 1604l-308 393h180l252 -393h-124zM744 -22q-574 0 -574 582v896h191v-900q0 -214 97 -315.5t288 -101.5q386 0 386 413v904h190v-894q0 -133 -32 -237t-99 -183.5t-180 -121.5t-267 -42z" />
    <glyph glyph-name="uni0215" unicode="&#x215;" horiz-adv-x="1235" 
d="M735 1174l-283 393h180l225 -393h-122zM393 1174l-308 393h180l252 -393h-124zM555 -23q-197 0 -296 112.5t-99 302.5v634h183v-634q0 -132 62.5 -198.5t180.5 -66.5q135 0 211 77t76 199v623h184v-772q0 -137 9 -254h-187l-5 165q-43 -79 -122 -133.5t-197 -54.5z" />
    <glyph glyph-name="uni0216" unicode="&#x216;" horiz-adv-x="1495" 
d="M741 1870q130 0 199.5 -63t78.5 -197h-131q-5 70 -42 99t-105 29q-65 0 -101 -29.5t-43 -98.5h-129q17 260 273 260zM744 -22q-574 0 -574 582v896h191v-900q0 -214 97 -315.5t288 -101.5q386 0 386 413v904h190v-894q0 -133 -32 -237t-99 -183.5t-180 -121.5t-267 -42z
" />
    <glyph glyph-name="uni0217" unicode="&#x217;" horiz-adv-x="1235" 
d="M602 1440q130 0 199.5 -63t78.5 -197h-131q-5 70 -42 99t-105 29q-65 0 -101 -29.5t-43 -98.5h-129q17 260 273 260zM555 -23q-197 0 -296 112.5t-99 302.5v634h183v-634q0 -132 62.5 -198.5t180.5 -66.5q135 0 211 77t76 199v623h184v-772q0 -137 9 -254h-187l-5 165
q-43 -79 -122 -133.5t-197 -54.5z" />
    <glyph glyph-name="Scommaaccent" unicode="&#x218;" horiz-adv-x="1214" 
d="M420 -607l109 473h209l-168 -473h-150zM600 139q60 0 108.5 11t84.5 31.5t60.5 51t36.5 70t12 87.5q0 52 -11 87.5t-42 67.5t-84.5 57.5t-141.5 52.5q-9 3 -43.5 12.5t-45.5 13.5q-209 60 -304.5 152t-95.5 265q0 123 64 211t171.5 130.5t247.5 42.5q295 0 449 -152
l-95 -129q-51 50 -138 85t-193 35q-138 0 -220.5 -55t-82.5 -162q0 -72 19.5 -114t71 -73t155.5 -64q2 -1 37.5 -11t47.5 -13q128 -38 210.5 -79t132.5 -94.5t70 -117.5t20 -154q0 -101 -38.5 -179.5t-106.5 -127.5t-156 -74t-192 -25q-163 0 -291.5 53.5t-187.5 110.5
l85 138q64 -51 168 -96t218 -45z" />
    <glyph glyph-name="scommaaccent" unicode="&#x219;" horiz-adv-x="978" 
d="M308 -607l109 473h209l-168 -473h-150zM518 -22q-133 0 -234.5 40t-157.5 84l51 137q57 -42 145.5 -76t180.5 -34q204 0 204 150q0 63 -46 94t-179 76l-88 30q-51 18 -86.5 34t-71.5 40.5t-58 53t-35.5 69t-13.5 91.5q0 73 30.5 129.5t83.5 89t117 49t138 16.5
q203 0 342 -89l-51 -132q-135 72 -270 72q-99 0 -153 -34t-54 -96q0 -56 32.5 -82.5t129.5 -61.5q87 -29 103 -35q63 -22 101 -38t81.5 -42.5t67 -55.5t39 -72.5t15.5 -98.5q0 -82 -31 -143.5t-84 -96t-115 -51.5t-133 -17z" />
    <glyph glyph-name="uni021A" unicode="&#x21a;" horiz-adv-x="1144" 
d="M362 -607l109 473h209l-168 -473h-150zM475 0v1295h-465v161h1124v-161h-468v-1295h-191z" />
    <glyph glyph-name="uni021B" unicode="&#x21b;" horiz-adv-x="803" 
d="M314 -601l109 473h209l-168 -473h-150zM704 0h-85q-218 2 -298.5 78t-80.5 277v548h-197v123h201v264l180 53v-317h278v-123h-278v-558q0 -55 7.5 -89t23.5 -57.5t51 -34.5t79 -15.5t119 -4.5v-144z" />
    <glyph glyph-name="uni021E" unicode="&#x21e;" horiz-adv-x="1559" 
d="M699 1584l-247 351h164l162 -230l163 230h168l-246 -351h-164zM202 0v1456h192v-629h773v629h190v-1456h-189v666h-774v-666h-192z" />
    <glyph glyph-name="uni021F" unicode="&#x21f;" horiz-adv-x="1237" 
d="M166 0v1486h184v-621q46 84 143 135.5t206 51.5q96 0 170 -34t119 -93.5t68 -137t23 -168.5v-619h-185v614q0 151 -52 219.5t-168 68.5q-126 0 -225 -85t-99 -195v-622h-184zM617 1154l-247 351h164l162 -230l163 230h168l-246 -351h-164z" />
    <glyph glyph-name="uni0226" unicode="&#x226;" 
d="M602 1686v182h188v-182h-188zM438 545h514q-127 359 -256 711q-130 -357 -258 -711zM31 0l565 1456h204l568 -1456h-209l-150 389h-623l-147 -389h-208z" />
    <glyph glyph-name="uni0227" unicode="&#x227;" horiz-adv-x="1273" 
d="M496 1256v182h188v-182h-188zM615 128q153 0 233.5 106.5t80.5 286.5q0 170 -82 275.5t-234 105.5q-160 0 -243.5 -106t-83.5 -278q0 -173 84 -281.5t245 -108.5zM589 -22q-115 0 -208.5 43t-154 116.5t-93 170t-32.5 205.5q0 150 58.5 271.5t170.5 194.5t259 73
q109 0 198.5 -53t135.5 -136v163h182v-1026h-184v175q-44 -92 -131 -144.5t-201 -52.5z" />
    <glyph glyph-name="uni0228" unicode="&#x228;" horiz-adv-x="1205" 
d="M666 -447q-95 0 -176 28l13 97q21 -9 67.5 -18t86.5 -9h3q51 0 79.5 20t28.5 55q0 34 -39 60.5t-121 26.5h-22l32 196h97l-20 -128q105 -10 166.5 -52t61.5 -108q0 -40 -19.5 -72.5t-54 -53t-80.5 -31.5t-99 -11h-2h-2zM202 0v1456h872v-161h-681v-458h643v-162h-643
v-514h710v-161h-901z" />
    <glyph glyph-name="uni0229" unicode="&#x229;" horiz-adv-x="1166" 
d="M296 613h589q-10 141 -82 217t-192 76q-126 0 -210.5 -78t-104.5 -215zM634 -22q-245 0 -389 145.5t-144 386.5q0 237 138.5 389.5t366.5 152.5q144 0 246.5 -67t152 -182t49.5 -267q0 -19 -3 -49h-760q3 -172 99 -265.5t254 -93.5q184 0 326 114l55 -136
q-165 -128 -391 -128zM628 -447q-95 0 -176 28l13 97q21 -9 67.5 -18t86.5 -9h3q51 0 79.5 20t28.5 55q0 34 -39 60.5t-121 26.5h-22l32 196h97l-20 -128q105 -10 166.5 -52t61.5 -108q0 -40 -19.5 -72.5t-54 -53t-80.5 -31.5t-99 -11h-2h-2z" />
    <glyph glyph-name="uni022E" unicode="&#x22e;" horiz-adv-x="1626" 
d="M721 1686v182h188v-182h-188zM816 -22q-330 0 -519.5 203t-189.5 548q0 223 83.5 392.5t245.5 265t382 95.5q321 0 511.5 -207.5t190.5 -545.5q0 -344 -188 -547.5t-516 -203.5zM814 139q244 0 371 157.5t127 432.5q0 269 -127.5 430.5t-368.5 161.5
q-240 0 -372.5 -162.5t-132.5 -429.5q0 -274 130 -432t373 -158z" />
    <glyph glyph-name="uni022F" unicode="&#x22f;" horiz-adv-x="1258" 
d="M631 -22q-249 0 -389.5 148t-140.5 386q0 242 141.5 391t390.5 149q248 0 386 -148.5t138 -391.5q0 -238 -140 -386t-386 -148zM631 128q162 0 247.5 105t85.5 279q0 177 -86.5 283.5t-247.5 106.5q-162 0 -249 -106.5t-87 -283.5q0 -174 86.5 -279t250.5 -105zM536 1256
v182h188v-182h-188z" />
    <glyph glyph-name="uni0232" unicode="&#x232;" horiz-adv-x="1239" 
d="M367 1672v124h584v-124h-584zM522 0v575l-501 881h212l389 -713l391 713h213l-512 -878v-578h-192z" />
    <glyph glyph-name="uni0233" unicode="&#x233;" horiz-adv-x="1065" 
d="M209 -433l-75 126q249 83 309 263l17 52l-419 1018h193l317 -820l297 820h185l-414 -1080q-55 -145 -160.5 -244t-249.5 -135zM277 1242v124h584v-124h-584z" />
    <glyph glyph-name="uni0237" unicode="&#x237;" horiz-adv-x="503" 
d="M21 -423q-64 0 -127 12v151q52 -12 88 -12q94 0 140.5 75t46.5 233v990h174v-922q0 -56 -2.5 -102.5t-10.5 -102.5t-21.5 -100t-38 -87t-57.5 -71.5t-82 -46t-110 -17.5z" />
    <glyph glyph-name="afii57929" unicode="&#x2bc;" horiz-adv-x="600" 
d="M38 1215l68 574h220l-154 -574h-134z" />
    <glyph glyph-name="circumflex" unicode="&#x2c6;" horiz-adv-x="699" 
d="M34 1154l234 347h162l236 -347h-156l-162 218l-164 -218h-150z" />
    <glyph glyph-name="caron" unicode="&#x2c7;" horiz-adv-x="699" 
d="M268 1154l-247 351h164l162 -230l163 230h168l-246 -351h-164z" />
    <glyph glyph-name="uni02C9" unicode="&#x2c9;" horiz-adv-x="600" 
d="M-9 1316h611v131h-611v-131z" />
    <glyph glyph-name="breve" unicode="&#x2d8;" horiz-adv-x="615" 
d="M310 1180q-130 0 -199.5 63t-78.5 197h131q5 -70 42 -99t105 -29q65 0 101 29.5t43 98.5h129q-17 -260 -273 -260z" />
    <glyph glyph-name="dotaccent" unicode="&#x2d9;" horiz-adv-x="524" 
d="M168 1256v182h188v-182h-188z" />
    <glyph glyph-name="ring" unicode="&#x2da;" horiz-adv-x="628" 
d="M315 1137q-85 0 -143 56t-58 139q0 84 58 139.5t143 55.5t143 -55.5t58 -139.5q0 -83 -58 -139t-143 -56zM314 1222q44 0 75 32t31 78t-31 78t-75 32t-75 -32t-31 -78t31 -78t75 -32z" />
    <glyph glyph-name="ogonek" unicode="&#x2db;" horiz-adv-x="508" 
d="M280 -424q-100 0 -166.5 45.5t-66.5 128.5q0 79 65 149t152 116l105 -5q-69 -45 -115.5 -112.5t-46.5 -118.5q0 -41 28.5 -63.5t85.5 -22.5q50 0 133 23v-112q-89 -28 -174 -28z" />
    <glyph glyph-name="tilde" unicode="&#x2dc;" horiz-adv-x="667" 
d="M487 1175q-38 0 -96.5 25t-112.5 50.5t-83 25.5q-61 0 -70 -93h-118q0 106 48.5 169.5t131.5 63.5q21 0 45 -5.5t46.5 -14.5t45 -20t44 -21.5t41 -19.5t37.5 -14.5t32 -5.5q32 0 45.5 22t14.5 77h122q0 -112 -44.5 -175.5t-128.5 -63.5z" />
    <glyph glyph-name="hungarumlaut" unicode="&#x2dd;" horiz-adv-x="969" 
d="M407 1160l241 372h208l-312 -372h-137zM83 1160l212 372h199l-278 -372h-133z" />
    <glyph glyph-name="uni0307" unicode="&#x307;" horiz-adv-x="524" 
d="M171 1268v179h182v-179h-182z" />
    <glyph glyph-name="uni030F" unicode="&#x30f;" horiz-adv-x="969" 
d="M718 1174l-283 393h180l225 -393h-122zM376 1174l-308 393h180l252 -393h-124z" />
    <glyph glyph-name="uni0311" unicode="&#x311;" horiz-adv-x="615" 
d="M305 1440q130 0 199.5 -63t78.5 -197h-131q-5 70 -42 99t-105 29q-65 0 -101 -29.5t-43 -98.5h-129q17 260 273 260z" />
    <glyph glyph-name="uni0312" unicode="&#x312;" horiz-adv-x="600" 
d="M501 1681l-108 -489h-209l167 489h150z" />
    <glyph glyph-name="uni0326" unicode="&#x326;" horiz-adv-x="540" 
d="M111 -607l109 473h209l-168 -473h-150z" />
    <glyph glyph-name="uni0358" unicode="&#x358;" horiz-adv-x="524" 
d="M171 1268v179h182v-179h-182z" />
    <glyph glyph-name="uni0394" unicode="&#x394;" horiz-adv-x="1305" 
d="M254 142h793l-390 1095zM56 0v84l528 1371h154l511 -1371v-84h-1193z" />
    <glyph glyph-name="Sigma" unicode="&#x3a3;" horiz-adv-x="1064" 
d="M86 1456v-107l484 -727l-505 -719v-102h972v162h-728l474 655l-453 684h661v154h-905z" />
    <glyph glyph-name="uni03A9" unicode="&#x3a9;" horiz-adv-x="1603" 
d="M102 0l-21 144h333q-138 109 -223 284t-85 370q0 201 91 355t248.5 235.5t356.5 81.5q202 0 357 -89.5t236 -242.5t81 -345q0 -193 -90.5 -366t-222.5 -283h313l-15 -144h-532v133q154 105 251 278t97 365q0 109 -30.5 204.5t-89 169t-151 116t-208.5 42.5
q-218 0 -355 -146t-137 -381q0 -195 94.5 -371t248.5 -277l1 -133h-548z" />
    <glyph glyph-name="uni03BC" unicode="&#x3bc;" horiz-adv-x="1197" 
d="M866 259q-111 -146 -298 -146q-123 0 -177.5 74.5t-54.5 220.5v674h-182v-1370h182v311q84 -43 207 -43q214 0 337 155l10 -135h157v1082h-181v-823z" />
    <glyph glyph-name="pi" unicode="&#x3c0;" horiz-adv-x="1445" 
d="M1143 -13q121 0 181 58v131q-2 -1 -24.5 -9t-35 -12t-32.5 -8.5t-35 -4.5q-124 0 -124 292q0 201 36 472h241v176h-909q-179 0 -248.5 -71t-69.5 -240h98q10 62 43 98.5t91 36.5h125l-65 -508q-10 -80 -37.5 -137.5t-67.5 -88t-83 -44t-92 -13.5v-111q106 0 180.5 13
t123 37.5t77 66t41 91t15.5 120.5l26 574h379q-8 -55 -24.5 -168t-25 -175t-16.5 -143.5t-8 -138.5q0 -145 55.5 -219.5t184.5 -74.5z" />
    <glyph glyph-name="uni1E02" unicode="&#x1e02;" horiz-adv-x="1356" 
d="M551 1686v182h188v-182h-188zM393 840h253q322 0 322 238q0 123 -88 170t-266 47h-221v-455zM394 163h294q169 0 258.5 66t89.5 190q0 146 -85.5 204.5t-288.5 58.5h-268v-519zM202 0v1456h385q65 0 120.5 -3.5t116.5 -13t109.5 -25.5t94 -43.5t75.5 -64t48 -89
t18 -116.5q0 -121 -60.5 -206t-179.5 -118q147 -25 228.5 -121t81.5 -242q0 -180 -135 -297t-385 -117h-517z" />
    <glyph glyph-name="uni1E03" unicode="&#x1e03;" horiz-adv-x="1274" 
d="M610 1256v182h188v-182h-188zM679 128q146 0 223.5 107t77.5 289q0 169 -80 273.5t-222 104.5q-151 0 -240 -107t-89 -279q0 -174 88.5 -281t241.5 -107zM703 -22q-123 0 -216.5 56t-133.5 140l-1 -174h-188q7 233 7 270v1216h185v-634q37 81 128.5 140.5t221.5 59.5
q213 0 339.5 -143.5t126.5 -382.5q0 -247 -132 -397.5t-337 -150.5z" />
    <glyph glyph-name="uni1E0A" unicode="&#x1e0a;" horiz-adv-x="1540" 
d="M601 1686v182h188v-182h-188zM202 0v1456h358q422 0 645 -179t223 -551q0 -348 -207 -537t-596 -189h-423zM393 161h242q292 0 441.5 147.5t149.5 417.5q0 291 -159.5 430t-488.5 139h-185v-1134z" />
    <glyph glyph-name="uni1E0B" unicode="&#x1e0b;" horiz-adv-x="1264" 
d="M456 1256v182h188v-182h-188zM597 128q151 0 233 107t82 287q0 169 -83 274.5t-229 105.5t-227 -106.5t-81 -281.5q0 -174 79 -280t226 -106zM570 -22q-206 0 -337.5 145.5t-131.5 386.5q0 158 56 279.5t165.5 192t257.5 70.5q118 0 206 -53t122 -127v614h185v-1220
q1 -92 7 -266h-187l-4 174q-31 -80 -119.5 -138t-219.5 -58z" />
    <glyph glyph-name="uni1E1E" unicode="&#x1e1e;" horiz-adv-x="1116" 
d="M542 1686v182h188v-182h-188zM202 0v1456h840v-161h-649v-458h604v-162h-604v-675h-191z" />
    <glyph glyph-name="uni1E1F" unicode="&#x1e1f;" horiz-adv-x="726" 
d="M252 0v903h-183v123h183v84q0 53 2.5 91.5t9.5 77t20 65t33.5 51.5t49.5 40.5t69 27.5t91.5 17t117.5 5h47l-4 -143q-61 0 -101 -3.5t-69 -14.5t-44.5 -24.5t-24.5 -41t-11 -56t-2 -77.5v-99h245v-123h-245v-903h-184zM261 1686v182h188v-182h-188z" />
    <glyph glyph-name="uni1E40" unicode="&#x1e40;" horiz-adv-x="1923" 
d="M872 1686v182h188v-182h-188zM202 0v1456h232q25 -58 225 -513.5t303 -695.5q103 241 304.5 696t227.5 513h227v-1456h-182v1145q-98 -226 -285.5 -644.5t-223.5 -500.5h-137l-432 973l-75 180v-1153h-184z" />
    <glyph glyph-name="uni1E41" unicode="&#x1e41;" horiz-adv-x="1880" 
d="M177 0v758q0 52 -11 268h191l2 -166q41 90 131 141t197 51q110 0 192.5 -58t119.5 -164q56 104 151.5 163t215.5 59q175 0 265.5 -111.5t90.5 -312.5v-628h-184v613q0 136 -46 212.5t-142 76.5q-123 0 -211.5 -89.5t-94.5 -220.5v-592h-184v629q0 123 -48 198t-153 75
q-121 0 -205 -81t-92 -196v-625h-185zM901 1256v182h188v-182h-188z" />
    <glyph glyph-name="uni1E56" unicode="&#x1e56;" horiz-adv-x="1260" 
d="M551 1686v182h188v-182h-188zM393 821h265q173 0 256 52t83 183q0 49 -10 86.5t-31.5 64t-50 44t-70 27t-87 13.5t-105.5 4h-4h-3.5h-3.5h-3.5h-3.5h-232v-474zM202 0v1456h419q110 0 191.5 -9t156.5 -35t121.5 -69.5t74 -115.5t27.5 -170q0 -110 -36 -188t-106.5 -123
t-165.5 -65.5t-223 -20.5h-268v-660h-191z" />
    <glyph glyph-name="uni1E57" unicode="&#x1e57;" horiz-adv-x="1263" 
d="M669 127q145 0 223.5 107t78.5 282q0 174 -78.5 279.5t-222.5 105.5q-148 0 -231.5 -109.5t-83.5 -288.5q0 -170 82 -273t232 -103zM177 -428v1156q0 67 -11 298h193l1 -184q29 85 126 147t218 62q208 0 333 -148t125 -381q0 -237 -126.5 -391t-335.5 -154
q-122 0 -217 57t-123 132v-594h-183zM580 1256v182h188v-182h-188z" />
    <glyph glyph-name="uni1E60" unicode="&#x1e60;" horiz-adv-x="1214" 
d="M526 1686v182h188v-182h-188zM600 139q60 0 108.5 11t84.5 31.5t60.5 51t36.5 70t12 87.5q0 52 -11 87.5t-42 67.5t-84.5 57.5t-141.5 52.5q-9 3 -43.5 12.5t-45.5 13.5q-209 60 -304.5 152t-95.5 265q0 123 64 211t171.5 130.5t247.5 42.5q295 0 449 -152l-95 -129
q-51 50 -138 85t-193 35q-138 0 -220.5 -55t-82.5 -162q0 -72 19.5 -114t71 -73t155.5 -64q2 -1 37.5 -11t47.5 -13q128 -38 210.5 -79t132.5 -94.5t70 -117.5t20 -154q0 -101 -38.5 -179.5t-106.5 -127.5t-156 -74t-192 -25q-163 0 -291.5 53.5t-187.5 110.5l85 138
q64 -51 168 -96t218 -45z" />
    <glyph glyph-name="uni1E61" unicode="&#x1e61;" horiz-adv-x="978" 
d="M518 -22q-133 0 -234.5 40t-157.5 84l51 137q57 -42 145.5 -76t180.5 -34q204 0 204 150q0 63 -46 94t-179 76l-88 30q-51 18 -86.5 34t-71.5 40.5t-58 53t-35.5 69t-13.5 91.5q0 73 30.5 129.5t83.5 89t117 49t138 16.5q203 0 342 -89l-51 -132q-135 72 -270 72
q-99 0 -153 -34t-54 -96q0 -56 32.5 -82.5t129.5 -61.5q87 -29 103 -35q63 -22 101 -38t81.5 -42.5t67 -55.5t39 -72.5t15.5 -98.5q0 -82 -31 -143.5t-84 -96t-115 -51.5t-133 -17zM390 1256v182h188v-182h-188z" />
    <glyph glyph-name="uni1E6A" unicode="&#x1e6a;" horiz-adv-x="1144" 
d="M475 1686v182h188v-182h-188zM475 0v1295h-465v161h1124v-161h-468v-1295h-191z" />
    <glyph glyph-name="uni1E6B" unicode="&#x1e6b;" horiz-adv-x="803" 
d="M704 0h-85q-218 2 -298.5 78t-80.5 277v548h-197v123h201v264l180 53v-317h278v-123h-278v-558q0 -55 7.5 -89t23.5 -57.5t51 -34.5t79 -15.5t119 -4.5v-144zM232 1577v182h188v-182h-188z" />
    <glyph glyph-name="Wgrave" unicode="&#x1e80;" horiz-adv-x="2022" 
d="M942 1603l-337 360h240l250 -360h-153zM440 0l-398 1456h205l257 -1004l54 -235q67 249 207 712.5t158 526.5h191q19 -62 159 -525.5t210 -710.5q55 247 169 707t131 529h197l-387 -1456h-223l-355 1199l-355 -1199h-220z" />
    <glyph glyph-name="wgrave" unicode="&#x1e81;" horiz-adv-x="1636" 
d="M372 0l-341 1026h196q15 -50 106 -350.5t140 -459.5q53 159 153.5 456t119.5 354h179q18 -56 115 -354.5t149 -456.5q47 158 133.5 455t103.5 356h179l-341 -1026h-173q-13 39 -113 341.5t-152 461.5q-54 -160 -160.5 -459.5t-121.5 -343.5h-172zM759 1173l-337 360h240
l250 -360h-153z" />
    <glyph glyph-name="Wacute" unicode="&#x1e82;" horiz-adv-x="2022" 
d="M954 1602l236 360h237l-319 -360h-154zM440 0l-398 1456h205l257 -1004l54 -235q67 249 207 712.5t158 526.5h191q19 -62 159 -525.5t210 -710.5q55 247 169 707t131 529h197l-387 -1456h-223l-355 1199l-355 -1199h-220z" />
    <glyph glyph-name="wacute" unicode="&#x1e83;" horiz-adv-x="1636" 
d="M372 0l-341 1026h196q15 -50 106 -350.5t140 -459.5q53 159 153.5 456t119.5 354h179q18 -56 115 -354.5t149 -456.5q47 158 133.5 455t103.5 356h179l-341 -1026h-173q-13 39 -113 341.5t-152 461.5q-54 -160 -160.5 -459.5t-121.5 -343.5h-172zM771 1172l236 360h237
l-319 -360h-154z" />
    <glyph glyph-name="Wdieresis" unicode="&#x1e84;" horiz-adv-x="2022" 
d="M1131 1612v189h186v-189h-186zM728 1612v189h187v-189h-187zM440 0l-398 1456h205l257 -1004l54 -235q67 249 207 712.5t158 526.5h191q19 -62 159 -525.5t210 -710.5q55 247 169 707t131 529h197l-387 -1456h-223l-355 1199l-355 -1199h-220z" />
    <glyph glyph-name="wdieresis" unicode="&#x1e85;" horiz-adv-x="1636" 
d="M372 0l-341 1026h196q15 -50 106 -350.5t140 -459.5q53 159 153.5 456t119.5 354h179q18 -56 115 -354.5t149 -456.5q47 158 133.5 455t103.5 356h179l-341 -1026h-173q-13 39 -113 341.5t-152 461.5q-54 -160 -160.5 -459.5t-121.5 -343.5h-172zM948 1182v189h186v-189
h-186zM545 1182v189h187v-189h-187z" />
    <glyph glyph-name="uni1EBC" unicode="&#x1ebc;" horiz-adv-x="1205" 
d="M801 1605q-38 0 -96.5 25t-112.5 50.5t-83 25.5q-61 0 -70 -93h-118q0 106 48.5 169.5t131.5 63.5q21 0 45 -5.5t46.5 -14.5t45 -20t44 -21.5t41 -19.5t37.5 -14.5t32 -5.5q32 0 45.5 22t14.5 77h122q0 -112 -44.5 -175.5t-128.5 -63.5zM202 0v1456h872v-161h-681v-458
h643v-162h-643v-514h710v-161h-901z" />
    <glyph glyph-name="uni1EBD" unicode="&#x1ebd;" horiz-adv-x="1166" 
d="M746 1175q-38 0 -96.5 25t-112.5 50.5t-83 25.5q-61 0 -70 -93h-118q0 106 48.5 169.5t131.5 63.5q21 0 45 -5.5t46.5 -14.5t45 -20t44 -21.5t41 -19.5t37.5 -14.5t32 -5.5q32 0 45.5 22t14.5 77h122q0 -112 -44.5 -175.5t-128.5 -63.5zM296 613h589q-10 141 -82 217
t-192 76q-126 0 -210.5 -78t-104.5 -215zM634 -22q-245 0 -389 145.5t-144 386.5q0 237 138.5 389.5t366.5 152.5q144 0 246.5 -67t152 -182t49.5 -267q0 -19 -3 -49h-760q3 -172 99 -265.5t254 -93.5q184 0 326 114l55 -136q-165 -128 -391 -128z" />
    <glyph glyph-name="Ygrave" unicode="&#x1ef2;" horiz-adv-x="1239" 
d="M560 1603l-337 360h240l250 -360h-153zM522 0v575l-501 881h212l389 -713l391 713h213l-512 -878v-578h-192z" />
    <glyph glyph-name="ygrave" unicode="&#x1ef3;" horiz-adv-x="1065" 
d="M209 -433l-75 126q249 83 309 263l17 52l-419 1018h193l317 -820l297 820h185l-414 -1080q-55 -145 -160.5 -244t-249.5 -135zM470 1173l-337 360h240l250 -360h-153z" />
    <glyph glyph-name="uni1EF8" unicode="&#x1ef8;" horiz-adv-x="1239" 
d="M796 1605q-38 0 -96.5 25t-112.5 50.5t-83 25.5q-61 0 -70 -93h-118q0 106 48.5 169.5t131.5 63.5q21 0 45 -5.5t46.5 -14.5t45 -20t44 -21.5t41 -19.5t37.5 -14.5t32 -5.5q32 0 45.5 22t14.5 77h122q0 -112 -44.5 -175.5t-128.5 -63.5zM522 0v575l-501 881h212l389 -713
l391 713h213l-512 -878v-578h-192z" />
    <glyph glyph-name="uni1EF9" unicode="&#x1ef9;" horiz-adv-x="1065" 
d="M209 -433l-75 126q249 83 309 263l17 52l-419 1018h193l317 -820l297 820h185l-414 -1080q-55 -145 -160.5 -244t-249.5 -135zM705 1175q-38 0 -96.5 25t-112.5 50.5t-83 25.5q-61 0 -70 -93h-118q0 106 48.5 169.5t131.5 63.5q21 0 45 -5.5t46.5 -14.5t45 -20t44 -21.5
t41 -19.5t37.5 -14.5t32 -5.5q32 0 45.5 22t14.5 77h122q0 -112 -44.5 -175.5t-128.5 -63.5z" />
    <glyph glyph-name="endash" unicode="&#x2013;" horiz-adv-x="1103" 
d="M3 488v146h1094v-146h-1094z" />
    <glyph glyph-name="emdash" unicode="&#x2014;" horiz-adv-x="2171" 
d="M16 480v154h2133v-154h-2133z" />
    <glyph glyph-name="afii00208" unicode="&#x2015;" horiz-adv-x="4097" 
d="M62 480v150h3972v-150h-3972z" />
    <glyph glyph-name="quoteleft" unicode="&#x2018;" horiz-adv-x="530" 
d="M411 1456l-68 -574h-220l154 574h134z" />
    <glyph glyph-name="quoteright" unicode="&#x2019;" horiz-adv-x="530" 
d="M123 882l68 574h220l-154 -574h-134z" />
    <glyph glyph-name="quotesinglbase" unicode="&#x201a;" horiz-adv-x="587" 
d="M155 -327l82 543h198l-128 -543h-152z" />
    <glyph glyph-name="quotedblleft" unicode="&#x201c;" horiz-adv-x="1024" 
d="M558 882l149 574h150l-93 -574h-206zM166 882l155 574h149l-93 -574h-211z" />
    <glyph glyph-name="quotedblright" unicode="&#x201d;" horiz-adv-x="1024" 
d="M561 882l92 574h205l-146 -574h-151zM197 882l90 574h206l-146 -574h-150z" />
    <glyph glyph-name="quotedblbase" unicode="&#x201e;" horiz-adv-x="960" 
d="M505 -327l82 543h198l-128 -543h-152zM155 -327l82 543h198l-128 -543h-152z" />
    <glyph glyph-name="dagger" unicode="&#x2020;" horiz-adv-x="1022" 
d="M445 0v903h-328v131h328v424h158v-424h335v-131h-341v-903h-152z" />
    <glyph glyph-name="daggerdbl" unicode="&#x2021;" horiz-adv-x="1086" 
d="M127 1034h335v425h164v-425h335v-115h-335v-409h328v-111h-328v-399h-164v399h-339v111h339v409h-335v115z" />
    <glyph glyph-name="bullet" unicode="&#x2022;" horiz-adv-x="989" 
d="M501 378q-141 0 -233 92t-92 221q0 131 94 225t231 94q139 0 234.5 -94.5t95.5 -224.5t-95.5 -221.5t-234.5 -91.5z" />
    <glyph glyph-name="ellipsis" unicode="&#x2026;" horiz-adv-x="1620" 
d="M1219 -11v225h237v-225h-237zM684 -11v225h237v-225h-237zM148 -11v225h238v-225h-238z" />
    <glyph glyph-name="perthousand" unicode="&#x2030;" horiz-adv-x="2701" 
d="M2247 -19q-163 0 -254.5 107t-91.5 283q0 175 92.5 284.5t255.5 109.5t253.5 -108.5t90.5 -284.5q0 -175 -92 -283t-254 -108zM2248 104q185 0 185 268q0 271 -184 271q-188 0 -188 -272q0 -267 187 -267zM1414 -19q-163 0 -254.5 107.5t-91.5 282.5t93 284.5t256 109.5
q162 0 252.5 -108.5t90.5 -284.5q0 -175 -92 -283t-254 -108zM1416 104q185 0 185 268q0 271 -184 271q-189 0 -189 -272q0 -267 188 -267zM440 0l845 1456h156l-847 -1456h-154zM455 692q-165 0 -255.5 104t-90.5 285q0 180 92 287t256 107t254 -106t90 -287
q0 -180 -91.5 -285t-254.5 -105zM456 814q185 0 185 269q0 270 -184 270q-188 0 -188 -271q0 -268 187 -268z" />
    <glyph glyph-name="guilsinglleft" unicode="&#x2039;" horiz-adv-x="685" 
d="M409 168l-271 373l277 375h162l-248 -375l240 -373h-160z" />
    <glyph glyph-name="guilsinglright" unicode="&#x203a;" horiz-adv-x="685" 
d="M133 167l247 376l-239 372h159l271 -373l-276 -375h-162z" />
    <glyph glyph-name="fraction" unicode="&#x2044;" horiz-adv-x="1073" 
d="M24 0l900 1456h173l-898 -1456h-175z" />
    <glyph glyph-name="uni2074" unicode="&#x2074;" horiz-adv-x="1167" 
d="M429 952h239v339zM670 658v188h-380v92l368 518h138v-504h107l-1 -106h-107v-188h-125z" />
    <glyph glyph-name="Euro" unicode="&#x20ac;" horiz-adv-x="1480" 
d="M916 -22q276 0 485 153l-64 152q-192 -144 -412 -144q-122 0 -223.5 45.5t-173 132t-104.5 206.5h481l7 104h-507q-3 22 -4 45t-1 46q0 62 9 120h532l7 110h-514q55 171 183 272t306 101q207 0 368 -119l76 130q-183 150 -458 150q-249 0 -434 -144t-248 -390h-193
l-5 -110h177q-7 -60 -7 -122q0 -15 0.5 -30t1.5 -30t2 -29h-168l-5 -104h189q28 -131 94.5 -235.5t159.5 -171.5t206 -102.5t237 -35.5z" />
    <glyph glyph-name="afii61289" unicode="&#x2113;" horiz-adv-x="526" 
d="M177 0v1486h184v-1486h-184z" />
    <glyph glyph-name="trademark" unicode="&#x2122;" horiz-adv-x="1869" 
d="M321 690v651h-250v119h637v-119h-247v-651h-140zM828 690v770h162l259 -583l268 583h154v-770h-124v574l-257 -574h-87l-253 569v-569h-122z" />
    <glyph glyph-name="Omega" unicode="&#x2126;" horiz-adv-x="1603" 
d="M102 0l-21 144h333q-138 109 -223 284t-85 370q0 201 91 355t248.5 235.5t356.5 81.5q202 0 357 -89.5t236 -242.5t81 -345q0 -193 -90.5 -366t-222.5 -283h313l-15 -144h-532v133q154 105 251 278t97 365q0 109 -30.5 204.5t-89 169t-151 116t-208.5 42.5
q-218 0 -355 -146t-137 -381q0 -195 94.5 -371t248.5 -277l1 -133h-548z" />
    <glyph glyph-name="estimated" unicode="&#x212e;" horiz-adv-x="1206" 
d="M316 713h570q0 117 -23 203t-63.5 133.5t-87.5 69.5t-103 22q-54 0 -103.5 -22.5t-93 -69.5t-69.5 -133.5t-27 -202.5zM627 114q-108 0 -201.5 34.5t-165.5 100t-113 169t-41 234.5q0 116 29 209.5t77 155.5t114 104t137 60t148 18q93 0 171 -26t143 -82t102 -156
t37 -235q0 -25 -5 -45h-743v-6q0 -120 28 -212t77.5 -148t114 -84.5t140.5 -28.5q163 0 353 123l27 -52q-203 -133 -429 -133z" />
    <glyph glyph-name="partialdiff" unicode="&#x2202;" horiz-adv-x="1164" 
d="M490 128q154 0 247.5 139t123.5 385q-31 85 -100 143t-159 58q-93 0 -171.5 -59.5t-123 -159.5t-44.5 -216q0 -132 61.5 -211t165.5 -79zM878 899q0 220 -83 347t-235 127q-149 0 -281 -86l-12 142q139 95 314 95q234 0 362 -168.5t128 -510.5q0 -131 -22.5 -255.5
t-70.5 -236t-116 -195.5t-164.5 -133t-209.5 -49q-198 0 -306 125t-108 321q0 160 68 293.5t184.5 210t255.5 76.5q112 0 189 -52t107 -116v26v39z" />
    <glyph glyph-name="emptyset" unicode="&#x2205;" horiz-adv-x="1678" 
d="M112 733q0 152 60.5 290.5t159.5 236.5t230.5 155.5t269.5 57.5q129 0 251 -49t221 -138l177 199l37 -29l-181 -202q101 -102 158 -236.5t57 -284.5q0 -152 -60.5 -290.5t-159.5 -236.5t-230.5 -155.5t-269.5 -57.5q-126 0 -245.5 47t-217.5 132l-192 -215l-32 29
l192 216q-105 103 -165 240t-60 291zM398 204q92 -80 204 -123.5t230 -43.5q130 0 253.5 54.5t217 146t150 222t56.5 273.5q0 141 -53.5 266.5t-147.5 222.5zM366 234l909 1020q-92 83 -207 129t-236 46q-130 0 -253.5 -54.5t-217 -146t-150 -222t-56.5 -273.5
q0 -145 56 -274t155 -225z" />
    <glyph glyph-name="Delta" unicode="&#x2206;" horiz-adv-x="1309" 
d="M254 142h793l-390 1095zM56 0v84l528 1371h154l511 -1371v-84h-1193z" />
    <glyph glyph-name="product" unicode="&#x220f;" horiz-adv-x="1559" 
d="M276 -89v1389h-165v156h1316v-156h-148v-1389h-195v1389h-617v-1389h-191z" />
    <glyph glyph-name="summation" unicode="&#x2211;" horiz-adv-x="1193" 
d="M132 -110v96l496 695l-476 677v97h901v-147h-672l445 -620l-471 -648h740v-150h-963z" />
    <glyph glyph-name="minus" unicode="&#x2212;" horiz-adv-x="1287" 
d="M174 443v152h939v-152h-939z" />
    <glyph glyph-name="uni2215" unicode="&#x2215;" horiz-adv-x="966" 
d="M125 0l530 1456h171l-534 -1456h-167z" />
    <glyph glyph-name="uni2219" unicode="&#x2219;" horiz-adv-x="527" 
d="M179 517v182h188v-182h-188z" />
    <glyph glyph-name="radical" unicode="&#x221a;" horiz-adv-x="1314" 
d="M671 -150l-325 826l-170 -28l-26 129l314 53l271 -732l397 1487h154l-463 -1735h-152z" />
    <glyph glyph-name="infinity" unicode="&#x221e;" horiz-adv-x="1728" 
d="M1268 363q106 0 160 71.5t54 186.5q0 85 -61.5 145t-157.5 60q-168 0 -327 -231q94 -122 169 -177t163 -55zM468 363q89 0 168.5 61t157.5 167q-77 111 -158 173t-178 62q-103 0 -162.5 -66.5t-59.5 -164.5q0 -93 65 -162.5t167 -69.5zM461 235q-159 0 -262 111.5
t-103 269.5q0 139 108 237.5t252 98.5q118 0 216.5 -65t192.5 -188q91 123 187 188t215 65q163 0 261.5 -99t98.5 -256t-106.5 -259.5t-255.5 -102.5q-109 0 -205 61.5t-197 191.5q-94 -122 -190.5 -187.5t-211.5 -65.5z" />
    <glyph glyph-name="integral" unicode="&#x222b;" horiz-adv-x="749" 
d="M181 -305q-40 0 -76 5.5t-53 11.5l-16 5v144q79 -15 133 -15q88 0 117.5 48t29.5 156v1139q0 69 7.5 123t27 103t51 81.5t81.5 51.5t117 19q39 0 74 -5.5t50 -11.5l16 -5v-146q-53 17 -110 17q-88 0 -116.5 -47.5t-28.5 -156.5v-1139q0 -378 -304 -378z" />
    <glyph glyph-name="approxequal" unicode="&#x2248;" horiz-adv-x="1351" 
d="M310 252l-135 36q31 125 110.5 196t195.5 71q100 0 258 -86q17 -8 51.5 -26t52 -26.5t41 -16.5t41.5 -8q55 0 93.5 41.5t68.5 124.5l131 -33q-29 -126 -103 -197t-195 -71q-58 0 -120.5 23.5t-147.5 73.5q-112 64 -173 64q-123 0 -169 -166zM310 660l-137 31
q28 125 108 196.5t198 71.5q61 0 119 -21.5t133 -65.5q129 -75 193 -75q55 0 94 41.5t68 124.5l130 -33q-27 -126 -102 -196.5t-196 -70.5q-62 0 -123.5 22.5t-146.5 72.5q-113 67 -172 67q-118 0 -166 -165z" />
    <glyph glyph-name="notequal" unicode="&#x2260;" horiz-adv-x="1360" 
d="M481 43l-139 21l124 255h-294v137h363l135 258h-498v138h563l134 271l143 -21l-124 -250h317v-138h-382l-137 -258h519v-137h-586z" />
    <glyph glyph-name="lessequal" unicode="&#x2264;" horiz-adv-x="1350" 
d="M168 0v130h975v-130h-975zM1122 215l-933 465v96l938 444v-173l-706 -321l701 -342v-169z" />
    <glyph glyph-name="greaterequal" unicode="&#x2265;" horiz-adv-x="1350" 
d="M188 0v130h975v-130h-975zM199 214v173l704 321l-700 341v171l932 -467v-96z" />
    <glyph glyph-name="lozenge" unicode="&#x25ca;" horiz-adv-x="1248" 
d="M610 132l344 578l-335 572l-345 -572zM550 -42l-448 752l455 753h120l451 -752l-459 -753h-119z" />
    <glyph glyph-name="uniFB00" unicode="&#xfb00;" horiz-adv-x="1349" 
d="M1062 913v-913h-170v913h-472v-913h-170v913h-182v113h182v89q0 69 5 116.5t19.5 92.5t40.5 72.5t69 49t104.5 30.5t146.5 9h47l-1 -134q-62 0 -104 -4t-71.5 -15.5t-46 -25.5t-25.5 -41.5t-11.5 -55t-2.5 -73.5v-110h472v89q0 69 5 116.5t19.5 92.5t40.5 72.5t69 49
t104.5 30.5t146.5 9h47l-1 -134q-62 0 -104 -4t-71.5 -15.5t-46 -25.5t-25.5 -41.5t-11.5 -55t-2.5 -73.5v-110h248v-113h-248z" />
    <glyph glyph-name="uniFB01" unicode="&#xfb01;" horiz-adv-x="1224" 
d="M250 0v912h-181v114h181v88q0 69 5 116.5t19.5 92.5t41 72.5t69 49.5t105 31t147.5 9h47l-1 -136q-74 0 -120 -7.5t-75 -20t-42.5 -41t-17.5 -59.5t-4 -87v-108h490v-114h-490v-912h-174zM877 1285v171h182v-171h-182zM876 0v1026h183v-1026h-183z" />
    <glyph glyph-name="uniFB02" unicode="&#xfb02;" horiz-adv-x="1265" 
d="M268 0v913h-199v113h199v79q0 102 19.5 166.5t72 110.5t143 65t232.5 19h358v-1466h-173v1331h-179q-129 0 -193 -19t-85.5 -59t-21.5 -121v-106h247v-113h-247v-913h-173z" />
    <glyph glyph-name="uniFB03" unicode="&#xfb03;" horiz-adv-x="1830" 
d="M1656 1295h-169v161h169v-161zM1656 0h-169v913h-442v-913h-171v913h-454v-913h-170v913h-182v113h182v88q0 69 5 116.5t19.5 92.5t40.5 72.5t69 49.5t104.5 31t146.5 9h47l-1 -135q-62 0 -104 -4t-71.5 -15.5t-46 -25.5t-25.5 -41.5t-11.5 -55t-2.5 -73.5v-109h454v88
q0 69 5 116.5t19 92.5t40.5 72.5t69 49.5t104.5 31t147 9h46l-2 -135q-61 0 -103 -4t-71.5 -15.5t-45.5 -25.5t-25 -41.5t-11 -54.5t-2 -74v-109h611v-1026z" />
    <glyph glyph-name="uniFB04" unicode="&#xfb04;" horiz-adv-x="1896" 
d="M251 0v913h-183v113h183v81q0 61 3.5 103.5t13.5 85t28 70.5t47 52t71 38t99 21.5t132 7.5h48l-3 -143q-60 0 -100.5 -3.5t-70 -15t-45.5 -25.5t-24.5 -41.5t-11 -55.5t-2.5 -76v-99h244v-113h-244v-913h-185zM830 0v913h-199v113h199v79q0 102 19.5 166.5t72 110.5
t143 65t232.5 19h358v-1466h-173v1331h-179q-129 0 -193 -19t-85.5 -59t-21.5 -121v-106h247v-113h-247v-913h-173z" />
    <glyph glyph-name="NULL" horiz-adv-x="600" 
 />
    <glyph glyph-name="caron.alt" horiz-adv-x="600" 
d="M325 994l109 474h209l-168 -474h-150z" />
    <glyph glyph-name="fj" horiz-adv-x="1229" 
d="M889 1277v179h183v-179h-183zM747 -423q-64 0 -127 12v151q52 -12 88 -12q94 0 140.5 75t46.5 233v990h174v-922q0 -56 -2.5 -102.5t-10.5 -102.5t-21.5 -100t-38 -87t-57.5 -71.5t-82 -46t-110 -17.5zM252 0v903h-183v123h183v84q0 53 2.5 91.5t9.5 77t20 65t33.5 51.5
t49.5 40.5t69 27.5t91.5 17t117.5 5h47l-4 -143q-61 0 -101 -3.5t-69 -14.5t-44.5 -24.5t-24.5 -41t-11 -56t-2 -77.5v-99h245v-123h-245v-903h-184z" />
    <glyph glyph-name="foundryicon" horiz-adv-x="1347" 
d="M280 2l143 459l-389 294h485l150 460l159 -460h485l-391 -294l144 -459l-397 276zM485 405h106v147l170 -147h106v267h-106v-149l-170 149h-106v-267z" />
    <glyph glyph-name="i.loclTRK" horiz-adv-x="534" 
d="M177 0l-1 1026h185l1 -1026h-185zM171 1256v182h188v-182h-188z" />
    <glyph glyph-name="middot" horiz-adv-x="600" 
 />
    <glyph glyph-name="slashbar" horiz-adv-x="600" 
 />
    </font>
</defs>
</svg>
