<?xml version="1.0" standalone="no"?>
<!DOCTYPE svg PUBLIC "-//W3C//DTD SVG 1.1//EN" "http://www.w3.org/Graphics/SVG/1.1/DTD/svg11.dtd" >
<svg xmlns="http://www.w3.org/2000/svg" xmlns:xlink="http://www.w3.org/1999/xlink" version="1.1">
<metadata>
Created by FontForge 20170910 at Thu Nov 17 10:32:52 2016
 By Jimmy Wärting
Copyright 2011 - 2016 The Montserrat Project Authors \(julieta.ulanovsky@gmail.com\)
</metadata>
<defs>
<font id="MontserratAlternates-Light" horiz-adv-x="778" >
  <font-face 
    font-family="Montserrat Alternates Light"
    font-weight="300"
    font-stretch="normal"
    units-per-em="1000"
    panose-1="0 0 4 0 0 0 0 0 0 0"
    ascent="800"
    descent="-200"
    x-height="526"
    cap-height="700"
    bbox="-288 -257 1417 1138"
    underline-thickness="50"
    underline-position="-100"
    stemh="65"
    stemv="78"
    unicode-range="U+000D-FB02"
  />
<missing-glyph horiz-adv-x="587" 
d="M40 0v700h507v-700h-507zM120 70h347v560h-347v-560z" />
    <glyph glyph-name="f_f_i" unicode="ffi" horiz-adv-x="866" 
d="M83 573c0 114 81 176 168 176c41 -1 82 -13 113 -37l-31 -61c-24 17 -53 27 -80 28c-51 0 -93 -35 -93 -97v-72h150v-61h-150v-449h-77v573zM379 573c0 116 82 176 168 176c35 -1 69 -10 96 -27l-3 -70c-29 16 -61 26 -91 26c-53 0 -93 -33 -93 -96v-72h150v-61h-150
v-449h-77v573zM732 624c-29 0 -51 23 -51 53c0 31 22 53 51 53s51 -22 51 -53c0 -30 -22 -53 -51 -53zM694 0v526h77v-526h-77z" />
    <glyph glyph-name="f_f_l" unicode="ffl" horiz-adv-x="917" 
d="M253 679c-51 0 -93 -35 -93 -97v-72h150v-61h-150v-449h-77v573c0 114 81 176 168 176c41 -1 82 -13 113 -37l-31 -61c-24 17 -53 27 -80 28zM897 -9l15 -63c-30 -20 -61 -31 -89 -31c-64 0 -109 44 -109 129v545c0 68 -42 106 -116 108c-73 1 -114 -35 -114 -96l1 -73
h123v-61h-123l-1 -449h-77v449h-68v61h68v69c1 110 70 170 195 169c122 -1 189 -62 189 -170v-543c0 -45 19 -66 51 -66c17 0 36 8 55 22z" />
    <glyph glyph-name="fi" unicode="fi" horiz-adv-x="570" 
d="M83 573c0 116 82 176 168 176c35 -1 69 -10 96 -27l-3 -70c-29 16 -61 26 -91 26c-53 0 -93 -33 -93 -96v-72h150v-61h-150v-449h-77v573zM436 624c-29 0 -51 23 -51 53c0 31 22 53 51 53s51 -22 51 -53c0 -30 -22 -53 -51 -53zM398 0v526h77v-526h-77z" />
    <glyph glyph-name="fl" unicode="fl" horiz-adv-x="621" 
d="M111 579c1 110 70 170 195 169c122 -1 189 -62 189 -170v-543c0 -45 19 -66 51 -66c17 0 36 8 55 22l15 -63c-30 -20 -61 -31 -89 -31c-64 0 -109 44 -109 129v545c0 68 -42 106 -116 108c-73 1 -114 -35 -114 -96l1 -73h123v-61h-123l-1 -449h-77v449h-68v61h68v69z" />
    <glyph glyph-name=".notdef" horiz-adv-x="587" 
d="M40 0v700h507v-700h-507zM120 70h347v560h-347v-560z" />
    <glyph glyph-name="A" unicode="A" horiz-adv-x="769" 
d="M90 411c0 181 111 291 294 291c184 0 296 -110 296 -291v-411h-80v201h-430v-201h-80v411zM600 411c-1 136 -81 218 -215 218c-135 0 -215 -82 -215 -218v-136h430v136z" />
    <glyph glyph-name="Aacute" unicode="&#xc1;" horiz-adv-x="769" 
d="M452 924l79 -36l-124 -99h-75zM90 411c0 181 111 291 294 291c184 0 296 -110 296 -291v-411h-80v201h-430v-201h-80v411zM600 411c-1 136 -81 218 -215 218c-135 0 -215 -82 -215 -218v-136h430v136z" />
    <glyph glyph-name="Abreve" unicode="&#x102;" horiz-adv-x="769" 
d="M313 914c2 -42 32 -73 72 -73s70 31 72 73h55c-3 -76 -56 -129 -127 -129s-124 53 -127 129h55zM90 411c0 181 111 291 294 291c184 0 296 -110 296 -291v-411h-80v201h-430v-201h-80v411zM600 411c-1 136 -81 218 -215 218c-135 0 -215 -82 -215 -218v-136h430v136z" />
    <glyph glyph-name="uni1EAE" unicode="&#x1eae;" horiz-adv-x="769" 
d="M468 1080l79 -36l-124 -99h-75zM313 915c2 -42 32 -73 72 -73s70 31 72 73h55c-3 -76 -56 -129 -127 -129s-124 53 -127 129h55zM90 411c0 181 111 291 294 291c184 0 296 -110 296 -291v-411h-80v201h-430v-201h-80v411zM600 411c-1 136 -81 218 -215 218
c-135 0 -215 -82 -215 -218v-136h430v136z" />
    <glyph glyph-name="uni1EAE.ss01" horiz-adv-x="769" 
d="M468 1080l79 -36l-124 -99h-75zM313 915c2 -42 32 -73 72 -73s70 31 72 73h55c-3 -76 -56 -129 -127 -129s-124 53 -127 129h55zM90 411c0 181 111 291 294 291c184 0 296 -110 296 -291v-411h-80v201h-430v-201h-80v411zM600 411c-1 136 -81 218 -215 218
c-135 0 -215 -82 -215 -218v-136h430v136z" />
    <glyph glyph-name="uni1EB6" unicode="&#x1eb6;" horiz-adv-x="769" 
d="M512 915c-3 -76 -56 -129 -127 -129s-124 53 -127 129h55c2 -42 32 -73 72 -73s70 31 72 73h55zM90 411c0 181 111 291 294 291c184 0 296 -110 296 -291v-411h-80v201h-430v-201h-80v411zM600 411c-1 136 -81 218 -215 218c-135 0 -215 -82 -215 -218v-136h430v136z
M385 -55c29 0 51 -23 51 -53s-22 -54 -51 -54s-51 24 -51 54s22 53 51 53z" />
    <glyph glyph-name="uni1EB6.ss01" horiz-adv-x="769" 
d="M512 915c-3 -76 -56 -129 -127 -129s-124 53 -127 129h55c2 -42 32 -73 72 -73s70 31 72 73h55zM90 411c0 181 111 291 294 291c184 0 296 -110 296 -291v-411h-80v201h-430v-201h-80v411zM600 411c-1 136 -81 218 -215 218c-135 0 -215 -82 -215 -218v-136h430v136z
M385 -55c29 0 51 -23 51 -53s-22 -54 -51 -54s-51 24 -51 54s22 53 51 53z" />
    <glyph glyph-name="uni1EB0" unicode="&#x1eb0;" horiz-adv-x="769" 
d="M303 1080l120 -135h-75l-124 99zM313 915c2 -42 32 -73 72 -73s70 31 72 73h55c-3 -76 -56 -129 -127 -129s-124 53 -127 129h55zM90 411c0 181 111 291 294 291c184 0 296 -110 296 -291v-411h-80v201h-430v-201h-80v411zM600 411c-1 136 -81 218 -215 218
c-135 0 -215 -82 -215 -218v-136h430v136z" />
    <glyph glyph-name="uni1EB0.ss01" horiz-adv-x="769" 
d="M303 1080l120 -135h-75l-124 99zM313 915c2 -42 32 -73 72 -73s70 31 72 73h55c-3 -76 -56 -129 -127 -129s-124 53 -127 129h55zM90 411c0 181 111 291 294 291c184 0 296 -110 296 -291v-411h-80v201h-430v-201h-80v411zM600 411c-1 136 -81 218 -215 218
c-135 0 -215 -82 -215 -218v-136h430v136z" />
    <glyph glyph-name="uni1EB2" unicode="&#x1eb2;" horiz-adv-x="769" 
d="M299 1029c7 45 43 73 92 73c52 0 86 -35 86 -82c0 -39 -20 -66 -55 -93l-41 14c33 26 53 48 53 77c0 22 -15 40 -44 40s-47 -17 -50 -44zM313 915c2 -42 32 -73 72 -73s70 31 72 73h55c-3 -76 -56 -129 -127 -129s-124 53 -127 129h55zM90 411c0 181 111 291 294 291
c184 0 296 -110 296 -291v-411h-80v201h-430v-201h-80v411zM600 411c-1 136 -81 218 -215 218c-135 0 -215 -82 -215 -218v-136h430v136z" />
    <glyph glyph-name="uni1EB2.ss01" horiz-adv-x="769" 
d="M299 1029c7 45 43 73 92 73c52 0 86 -35 86 -82c0 -39 -20 -66 -55 -93l-41 14c33 26 53 48 53 77c0 22 -15 40 -44 40s-47 -17 -50 -44zM313 915c2 -42 32 -73 72 -73s70 31 72 73h55c-3 -76 -56 -129 -127 -129s-124 53 -127 129h55zM90 411c0 181 111 291 294 291
c184 0 296 -110 296 -291v-411h-80v201h-430v-201h-80v411zM600 411c-1 136 -81 218 -215 218c-135 0 -215 -82 -215 -218v-136h430v136z" />
    <glyph glyph-name="uni1EB4" unicode="&#x1eb4;" horiz-adv-x="769" 
d="M534 1046c0 -72 -30 -111 -83 -111c-59 0 -82 61 -122 61c-27 0 -42 -20 -42 -54h-53c0 74 29 112 83 112c55 0 82 -61 121 -61c28 0 43 19 43 53h53zM313 915c2 -42 32 -73 72 -73s70 31 72 73h55c-3 -76 -56 -129 -127 -129s-124 53 -127 129h55zM90 411
c0 181 111 291 294 291c184 0 296 -110 296 -291v-411h-80v201h-430v-201h-80v411zM600 411c-1 136 -81 218 -215 218c-135 0 -215 -82 -215 -218v-136h430v136z" />
    <glyph glyph-name="uni1EB4.ss01" horiz-adv-x="769" 
d="M534 1046c0 -72 -30 -111 -83 -111c-59 0 -82 61 -122 61c-27 0 -42 -20 -42 -54h-53c0 74 29 112 83 112c55 0 82 -61 121 -61c28 0 43 19 43 53h53zM313 915c2 -42 32 -73 72 -73s70 31 72 73h55c-3 -76 -56 -129 -127 -129s-124 53 -127 129h55zM90 411
c0 181 111 291 294 291c184 0 296 -110 296 -291v-411h-80v201h-430v-201h-80v411zM600 411c-1 136 -81 218 -215 218c-135 0 -215 -82 -215 -218v-136h430v136z" />
    <glyph glyph-name="Acircumflex" unicode="&#xc2;" horiz-adv-x="769" 
d="M347 919h76l102 -129h-68l-72 91l-72 -91h-68zM90 411c0 181 111 291 294 291c184 0 296 -110 296 -291v-411h-80v201h-430v-201h-80v411zM600 411c-1 136 -81 218 -215 218c-135 0 -215 -82 -215 -218v-136h430v136z" />
    <glyph glyph-name="uni1EA4" unicode="&#x1ea4;" horiz-adv-x="769" 
d="M602 1026l69 -36l-125 -99h-64zM347 921h76l102 -129h-68l-72 91l-72 -91h-68zM90 411c0 181 111 291 294 291c184 0 296 -110 296 -291v-411h-80v201h-430v-201h-80v411zM600 411c-1 136 -81 218 -215 218c-135 0 -215 -82 -215 -218v-136h430v136z" />
    <glyph glyph-name="uni1EA4.ss01" horiz-adv-x="769" 
d="M602 1026l69 -36l-125 -99h-64zM347 921h76l102 -129h-68l-72 91l-72 -91h-68zM90 411c0 181 111 291 294 291c184 0 296 -110 296 -291v-411h-80v201h-430v-201h-80v411zM600 411c-1 136 -81 218 -215 218c-135 0 -215 -82 -215 -218v-136h430v136z" />
    <glyph glyph-name="uni1EAC" unicode="&#x1eac;" horiz-adv-x="769" 
d="M423 921l102 -129h-68l-72 91l-72 -91h-68l102 129h76zM90 411c0 181 111 291 294 291c184 0 296 -110 296 -291v-411h-80v201h-430v-201h-80v411zM600 411c-1 136 -81 218 -215 218c-135 0 -215 -82 -215 -218v-136h430v136zM385 -55c29 0 51 -23 51 -53
s-22 -54 -51 -54s-51 24 -51 54s22 53 51 53z" />
    <glyph glyph-name="uni1EAC.ss01" horiz-adv-x="769" 
d="M423 921l102 -129h-68l-72 91l-72 -91h-68l102 129h76zM90 411c0 181 111 291 294 291c184 0 296 -110 296 -291v-411h-80v201h-430v-201h-80v411zM600 411c-1 136 -81 218 -215 218c-135 0 -215 -82 -215 -218v-136h430v136zM385 -55c29 0 51 -23 51 -53
s-22 -54 -51 -54s-51 24 -51 54s22 53 51 53z" />
    <glyph glyph-name="uni1EA6" unicode="&#x1ea6;" horiz-adv-x="769" 
d="M486 1012l120 -135h-64l-124 99zM347 921h76l102 -129h-68l-72 91l-72 -91h-68zM90 411c0 181 111 291 294 291c184 0 296 -110 296 -291v-411h-80v201h-430v-201h-80v411zM600 411c-1 136 -81 218 -215 218c-135 0 -215 -82 -215 -218v-136h430v136z" />
    <glyph glyph-name="uni1EA6.ss01" horiz-adv-x="769" 
d="M486 1012l120 -135h-64l-124 99zM347 921h76l102 -129h-68l-72 91l-72 -91h-68zM90 411c0 181 111 291 294 291c184 0 296 -110 296 -291v-411h-80v201h-430v-201h-80v411zM600 411c-1 136 -81 218 -215 218c-135 0 -215 -82 -215 -218v-136h430v136z" />
    <glyph glyph-name="uni1EA8" unicode="&#x1ea8;" horiz-adv-x="769" 
d="M407 987c7 45 43 73 92 73c52 0 86 -35 86 -82c0 -39 -20 -66 -55 -93l-41 14c33 26 53 48 53 77c0 22 -15 40 -44 40s-47 -17 -50 -44zM347 921h76l102 -129h-68l-72 91l-72 -91h-68zM90 411c0 181 111 291 294 291c184 0 296 -110 296 -291v-411h-80v201h-430v-201h-80
v411zM600 411c-1 136 -81 218 -215 218c-135 0 -215 -82 -215 -218v-136h430v136z" />
    <glyph glyph-name="uni1EA8.ss01" horiz-adv-x="769" 
d="M407 987c7 45 43 73 92 73c52 0 86 -35 86 -82c0 -39 -20 -66 -55 -93l-41 14c33 26 53 48 53 77c0 22 -15 40 -44 40s-47 -17 -50 -44zM347 921h76l102 -129h-68l-72 91l-72 -91h-68zM90 411c0 181 111 291 294 291c184 0 296 -110 296 -291v-411h-80v201h-430v-201h-80
v411zM600 411c-1 136 -81 218 -215 218c-135 0 -215 -82 -215 -218v-136h430v136z" />
    <glyph glyph-name="uni1EAA" unicode="&#x1eaa;" horiz-adv-x="769" 
d="M532 1046c0 -73 -29 -111 -83 -111c-59 0 -82 60 -122 60c-27 0 -42 -19 -42 -53h-53c0 73 29 112 83 112c56 0 82 -61 122 -61c27 0 42 19 42 53h53zM347 921h76l102 -129h-68l-72 91l-72 -91h-68zM90 411c0 181 111 291 294 291c184 0 296 -110 296 -291v-411h-80v201
h-430v-201h-80v411zM600 411c-1 136 -81 218 -215 218c-135 0 -215 -82 -215 -218v-136h430v136z" />
    <glyph glyph-name="uni1EAA.ss01" horiz-adv-x="769" 
d="M532 1046c0 -73 -29 -111 -83 -111c-59 0 -82 60 -122 60c-27 0 -42 -19 -42 -53h-53c0 73 29 112 83 112c56 0 82 -61 122 -61c27 0 42 19 42 53h53zM347 921h76l102 -129h-68l-72 91l-72 -91h-68zM90 411c0 181 111 291 294 291c184 0 296 -110 296 -291v-411h-80v201
h-430v-201h-80v411zM600 411c-1 136 -81 218 -215 218c-135 0 -215 -82 -215 -218v-136h430v136z" />
    <glyph glyph-name="uni0200" unicode="&#x200;" horiz-adv-x="769" 
d="M262 928l91 -139h-65l-93 106zM409 928l91 -139h-65l-93 106zM90 411c0 181 111 291 294 291c184 0 296 -110 296 -291v-411h-80v201h-430v-201h-80v411zM600 411c-1 136 -81 218 -215 218c-135 0 -215 -82 -215 -218v-136h430v136z" />
    <glyph glyph-name="uni0200.ss01" horiz-adv-x="769" 
d="M262 928l91 -139h-65l-93 106zM409 928l91 -139h-65l-93 106zM90 411c0 181 111 291 294 291c184 0 296 -110 296 -291v-411h-80v201h-430v-201h-80v411zM600 411c-1 136 -81 218 -215 218c-135 0 -215 -82 -215 -218v-136h430v136z" />
    <glyph glyph-name="Adieresis" unicode="&#xc4;" horiz-adv-x="769" 
d="M302 901c27 0 48 -21 48 -50c0 -27 -21 -49 -48 -49s-47 22 -47 49c0 29 20 50 47 50zM469 901c26 0 47 -21 47 -50c0 -27 -21 -49 -47 -49c-27 0 -48 22 -48 49c0 29 21 50 48 50zM90 411c0 181 111 291 294 291c184 0 296 -110 296 -291v-411h-80v201h-430v-201h-80
v411zM600 411c-1 136 -81 218 -215 218c-135 0 -215 -82 -215 -218v-136h430v136z" />
    <glyph glyph-name="uni1EA0" unicode="&#x1ea0;" horiz-adv-x="769" 
d="M90 411c0 181 111 291 294 291c184 0 296 -110 296 -291v-411h-80v201h-430v-201h-80v411zM600 411c-1 136 -81 218 -215 218c-135 0 -215 -82 -215 -218v-136h430v136zM385 -55c29 0 51 -23 51 -53s-22 -54 -51 -54s-51 24 -51 54s22 53 51 53z" />
    <glyph glyph-name="uni1EA0.ss01" horiz-adv-x="769" 
d="M90 411c0 181 111 291 294 291c184 0 296 -110 296 -291v-411h-80v201h-430v-201h-80v411zM600 411c-1 136 -81 218 -215 218c-135 0 -215 -82 -215 -218v-136h430v136zM385 -55c29 0 51 -23 51 -53s-22 -54 -51 -54s-51 24 -51 54s22 53 51 53z" />
    <glyph glyph-name="Agrave" unicode="&#xc0;" horiz-adv-x="769" 
d="M315 924l120 -135h-75l-125 99zM90 411c0 181 111 291 294 291c184 0 296 -110 296 -291v-411h-80v201h-430v-201h-80v411zM600 411c-1 136 -81 218 -215 218c-135 0 -215 -82 -215 -218v-136h430v136z" />
    <glyph glyph-name="uni1EA2" unicode="&#x1ea2;" horiz-adv-x="769" 
d="M292 856c7 45 43 73 91 73c53 0 87 -35 87 -82c0 -39 -20 -66 -55 -93l-41 14c33 26 53 48 53 77c0 22 -15 40 -44 40s-47 -17 -50 -44zM90 411c0 181 111 291 294 291c184 0 296 -110 296 -291v-411h-80v201h-430v-201h-80v411zM600 411c-1 136 -81 218 -215 218
c-135 0 -215 -82 -215 -218v-136h430v136z" />
    <glyph glyph-name="uni1EA2.ss01" horiz-adv-x="769" 
d="M292 856c7 45 43 73 91 73c53 0 87 -35 87 -82c0 -39 -20 -66 -55 -93l-41 14c33 26 53 48 53 77c0 22 -15 40 -44 40s-47 -17 -50 -44zM90 411c0 181 111 291 294 291c184 0 296 -110 296 -291v-411h-80v201h-430v-201h-80v411zM600 411c-1 136 -81 218 -215 218
c-135 0 -215 -82 -215 -218v-136h430v136z" />
    <glyph glyph-name="uni0202" unicode="&#x202;" horiz-adv-x="769" 
d="M313 786h-55c3 76 56 129 127 129s124 -53 127 -129h-55c-2 42 -32 73 -72 73s-70 -31 -72 -73zM90 411c0 181 111 291 294 291c184 0 296 -110 296 -291v-411h-80v201h-430v-201h-80v411zM600 411c-1 136 -81 218 -215 218c-135 0 -215 -82 -215 -218v-136h430v136z" />
    <glyph glyph-name="uni0202.ss01" horiz-adv-x="769" 
d="M313 786h-55c3 76 56 129 127 129s124 -53 127 -129h-55c-2 42 -32 73 -72 73s-70 -31 -72 -73zM90 411c0 181 111 291 294 291c184 0 296 -110 296 -291v-411h-80v201h-430v-201h-80v411zM600 411c-1 136 -81 218 -215 218c-135 0 -215 -82 -215 -218v-136h430v136z" />
    <glyph glyph-name="Amacron" unicode="&#x100;" horiz-adv-x="769" 
d="M265 880h241v-59h-241v59zM90 411c0 181 111 291 294 291c184 0 296 -110 296 -291v-411h-80v201h-430v-201h-80v411zM600 411c-1 136 -81 218 -215 218c-135 0 -215 -82 -215 -218v-136h430v136z" />
    <glyph glyph-name="Aogonek" unicode="&#x104;" horiz-adv-x="774" 
d="M90 411c0 181 111 291 294 291c184 0 296 -110 296 -291v-411h-15c-41 -56 -54 -89 -54 -115c0 -24 15 -38 35 -38s38 13 54 33l26 -30c-22 -30 -54 -50 -87 -50c-38 0 -73 24 -73 74c0 35 18 73 55 126h-21v202h-430v-202h-80v411zM600 411c-1 136 -81 218 -215 218
c-135 0 -215 -82 -215 -218v-136h430v136z" />
    <glyph glyph-name="Aring" unicode="&#xc5;" horiz-adv-x="769" 
d="M385 966c63 0 116 -53 116 -114s-53 -113 -116 -113s-115 52 -115 113s52 114 115 114zM385 926c-42 0 -77 -34 -77 -74s35 -73 77 -73s78 33 78 73s-36 74 -78 74zM90 411c0 181 111 291 294 291c184 0 296 -110 296 -291v-411h-80v201h-430v-201h-80v411zM600 411
c-1 136 -81 218 -215 218c-135 0 -215 -82 -215 -218v-136h430v136z" />
    <glyph glyph-name="Aringacute" unicode="&#x1fa;" horiz-adv-x="769" 
d="M458 1138l79 -36l-124 -99h-75zM385 966c63 0 116 -53 116 -114s-53 -113 -116 -113s-115 52 -115 113s52 114 115 114zM385 926c-42 0 -77 -34 -77 -74s35 -73 77 -73s78 33 78 73s-36 74 -78 74zM90 411c0 181 111 291 294 291c184 0 296 -110 296 -291v-411h-80v201
h-430v-201h-80v411zM600 411c-1 136 -81 218 -215 218c-135 0 -215 -82 -215 -218v-136h430v136z" />
    <glyph glyph-name="Aringacute.ss01" horiz-adv-x="769" 
d="M458 1138l79 -36l-124 -99h-75zM385 966c63 0 116 -53 116 -114s-53 -113 -116 -113s-115 52 -115 113s52 114 115 114zM385 926c-42 0 -77 -34 -77 -74s35 -73 77 -73s78 33 78 73s-36 74 -78 74zM90 411c0 181 111 291 294 291c184 0 296 -110 296 -291v-411h-80v201
h-430v-201h-80v411zM600 411c-1 136 -81 218 -215 218c-135 0 -215 -82 -215 -218v-136h430v136z" />
    <glyph glyph-name="Atilde" unicode="&#xc3;" horiz-adv-x="769" 
d="M535 910c0 -73 -29 -112 -83 -112c-58 0 -81 61 -121 61c-28 0 -43 -19 -43 -53h-52c0 73 29 112 83 112c55 0 82 -61 121 -61c28 0 43 19 43 53h52zM90 411c0 181 111 291 294 291c184 0 296 -110 296 -291v-411h-80v201h-430v-201h-80v411zM600 411
c-1 136 -81 218 -215 218c-135 0 -215 -82 -215 -218v-136h430v136z" />
    <glyph glyph-name="AE" unicode="&#xc6;" horiz-adv-x="1026" 
d="M561 74h408v-74h-488v192h-281l-111 -192h-85l413 700h539v-74h-395v-235h354v-73h-354v-244zM238 257h243v375h-25z" />
    <glyph glyph-name="AEacute" unicode="&#x1fc;" horiz-adv-x="1026" 
d="M767 888l-124 -99h-75l120 135zM561 74h408v-74h-488v192h-281l-111 -192h-85l413 700h539v-74h-395v-235h354v-73h-354v-244zM238 257h243v375h-25z" />
    <glyph glyph-name="B" unicode="B" horiz-adv-x="716" 
d="M401 700c141 0 227 -65 227 -175c0 -82 -49 -141 -130 -158c101 -15 160 -81 160 -177c0 -119 -94 -190 -253 -190h-299v700h295zM397 397c94 0 149 42 149 116c0 72 -55 113 -149 113h-211v-229h211zM397 74c114 -1 180 45 180 126c0 78 -66 124 -180 123h-211v-249h211
z" />
    <glyph glyph-name="C" unicode="C" horiz-adv-x="700" 
d="M613 542c-54 54 -130 87 -207 87c-158 0 -285 -123 -285 -278c0 -154 127 -279 285 -279c77 0 152 32 207 84l49 -53c-69 -65 -163 -106 -260 -106c-202 0 -362 156 -362 354c0 196 162 351 365 351c96 0 189 -39 256 -102z" />
    <glyph glyph-name="Cacute" unicode="&#x106;" horiz-adv-x="700" 
d="M432 924l79 -36l-124 -99h-75zM613 542c-54 54 -130 87 -207 87c-158 0 -285 -123 -285 -278c0 -154 127 -279 285 -279c77 0 152 32 207 84l49 -53c-69 -65 -163 -106 -260 -106c-202 0 -362 156 -362 354c0 196 162 351 365 351c96 0 189 -39 256 -102z" />
    <glyph glyph-name="Ccaron" unicode="&#x10c;" horiz-adv-x="700" 
d="M218 919h73l72 -94l72 94h73l-104 -135h-82zM613 542c-54 54 -130 87 -207 87c-158 0 -285 -123 -285 -278c0 -154 127 -279 285 -279c77 0 152 32 207 84l49 -53c-69 -65 -163 -106 -260 -106c-202 0 -362 156 -362 354c0 196 162 351 365 351c96 0 189 -39 256 -102z
" />
    <glyph glyph-name="Ccedilla" unicode="&#xc7;" horiz-adv-x="700" 
d="M406 -50c41 -5 71 -32 71 -75c1 -54 -41 -90 -97 -90c-30 0 -61 10 -81 25l17 41c16 -12 39 -20 59 -20c33 0 54 23 53 48c0 23 -18 43 -50 43c-10 0 -24 -2 -33 -3l34 79c-191 11 -339 163 -339 353c0 196 162 351 365 351c96 0 189 -39 256 -102l-48 -58
c-54 54 -130 87 -207 87c-158 0 -285 -123 -285 -278c0 -154 127 -279 285 -279c77 0 152 32 207 84l49 -53c-63 -59 -147 -99 -235 -105z" />
    <glyph glyph-name="uni1E08" unicode="&#x1e08;" horiz-adv-x="700" 
d="M517 888l-124 -99h-75l120 135zM387 -57c41 -5 71 -32 71 -75c1 -54 -41 -90 -97 -90c-30 0 -61 10 -81 25l17 41c16 -12 39 -20 59 -20c33 0 54 23 53 48c0 23 -18 43 -50 43c-10 0 -24 -2 -33 -3l37 87c-183 18 -323 167 -323 352c0 196 162 351 365 351
c96 0 189 -39 256 -102l-48 -58c-54 54 -130 87 -207 87c-158 0 -285 -123 -285 -278c0 -154 127 -279 285 -279c77 0 152 32 207 84l49 -53c-67 -63 -157 -103 -251 -106z" />
    <glyph glyph-name="Ccircumflex" unicode="&#x108;" horiz-adv-x="700" 
d="M327 919h76l102 -129h-68l-72 91l-72 -91h-68zM613 542c-54 54 -130 87 -207 87c-158 0 -285 -123 -285 -278c0 -154 127 -279 285 -279c77 0 152 32 207 84l49 -53c-69 -65 -163 -106 -260 -106c-202 0 -362 156 -362 354c0 196 162 351 365 351c96 0 189 -39 256 -102z
" />
    <glyph glyph-name="Cdotaccent" unicode="&#x10a;" horiz-adv-x="700" 
d="M365 904c29 0 51 -22 51 -53c0 -30 -22 -53 -51 -53s-51 23 -51 53c0 31 22 53 51 53zM613 542c-54 54 -130 87 -207 87c-158 0 -285 -123 -285 -278c0 -154 127 -279 285 -279c77 0 152 32 207 84l49 -53c-69 -65 -163 -106 -260 -106c-202 0 -362 156 -362 354
c0 196 162 351 365 351c96 0 189 -39 256 -102z" />
    <glyph glyph-name="D" unicode="D" horiz-adv-x="789" 
d="M389 700c204 0 360 -151 360 -350s-157 -350 -363 -350h-280v700h283zM390 74c156 0 278 118 278 275c0 158 -124 277 -281 277h-201v-552h204z" />
    <glyph glyph-name="uni01C4" unicode="&#x1c4;" horiz-adv-x="1449" 
d="M1163 784h-82l-104 135h73l72 -94l72 94h73zM389 700c204 0 360 -151 360 -350s-157 -350 -363 -350h-280v700h283zM937 74h469l-1 -74h-573v62l210 255h-143v67h198l199 242h-451v74h556v-62l-212 -258h142v-68h-198zM390 74c156 0 278 118 278 275
c0 158 -124 277 -281 277h-201v-552h204z" />
    <glyph glyph-name="uni01C4.ss01" horiz-adv-x="1449" 
d="M1163 784h-82l-104 135h73l72 -94l72 94h73zM389 700c204 0 360 -151 360 -350s-157 -350 -363 -350h-280v700h283zM937 74h469l-1 -74h-573v62l210 255h-143v67h198l199 242h-451v74h556v-62l-212 -258h142v-68h-198zM390 74c156 0 278 118 278 275
c0 158 -124 277 -281 277h-201v-552h204z" />
    <glyph glyph-name="Eth" unicode="&#xd0;" horiz-adv-x="801" 
d="M401 700c204 0 360 -151 360 -350s-157 -350 -363 -350h-280v326h-118v51h118v323h283zM402 74c156 0 278 118 278 275c0 158 -124 277 -281 277h-201v-249h223v-51h-223v-252h204z" />
    <glyph glyph-name="Dcaron" unicode="&#x10e;" horiz-adv-x="789" 
d="M226 919h73l72 -94l72 94h73l-104 -135h-82zM389 700c204 0 360 -151 360 -350s-157 -350 -363 -350h-280v700h283zM390 74c156 0 278 118 278 275c0 158 -124 277 -281 277h-201v-552h204z" />
    <glyph glyph-name="Dcroat" unicode="&#x110;" horiz-adv-x="801" 
d="M401 700c204 0 360 -151 360 -350s-157 -350 -363 -350h-280v326h-118v51h118v323h283zM402 74c156 0 278 118 278 275c0 158 -124 277 -281 277h-201v-249h223v-51h-223v-252h204z" />
    <glyph glyph-name="uni1E0C" unicode="&#x1e0c;" horiz-adv-x="789" 
d="M389 700c204 0 360 -151 360 -350s-157 -350 -363 -350h-280v700h283zM390 74c156 0 278 118 278 275c0 158 -124 277 -281 277h-201v-552h204zM403 -56c29 0 51 -22 51 -53c0 -30 -22 -53 -51 -53s-51 23 -51 53c0 31 22 53 51 53z" />
    <glyph glyph-name="uni1E0E" unicode="&#x1e0e;" horiz-adv-x="789" 
d="M389 700c204 0 360 -151 360 -350s-157 -350 -363 -350h-280v700h283zM390 74c156 0 278 118 278 275c0 158 -124 277 -281 277h-201v-552h204zM282 -63h241v-59h-241v59z" />
    <glyph glyph-name="uni01C5" unicode="&#x1c5;" horiz-adv-x="1316" 
d="M1100 610h-82l-104 135h73l72 -94l72 94h73zM389 700c204 0 360 -151 360 -350s-157 -350 -363 -350h-280v700h283zM390 74c156 0 278 118 278 275c0 158 -124 277 -281 277h-201v-552h204zM935 65h338v-66l-432 1v58l145 177h-107v64h159l132 161l-320 1v65l415 -1v-57
l-142 -173h106v-64h-158z" />
    <glyph glyph-name="uni01C5.ss01" horiz-adv-x="1316" 
d="M1100 610h-82l-104 135h73l72 -94l72 94h73zM389 700c204 0 360 -151 360 -350s-157 -350 -363 -350h-280v700h283zM390 74c156 0 278 118 278 275c0 158 -124 277 -281 277h-201v-552h204zM935 65h338v-66l-432 1v58l145 177h-107v64h159l132 161l-320 1v65l415 -1v-57
l-142 -173h106v-64h-158z" />
    <glyph glyph-name="E" unicode="E" horiz-adv-x="566" 
d="M320 329c-109 0 -188 -56 -188 -132c0 -77 81 -128 187 -128c65 0 148 24 194 49l32 -64c-54 -32 -148 -57 -229 -57c-154 0 -265 80 -265 193c0 87 69 162 170 180c-80 17 -137 81 -137 157c0 103 99 176 240 176c64 0 145 -17 192 -42l-28 -64c-43 21 -108 33 -160 33
c-97 0 -169 -42 -169 -111c0 -66 66 -116 161 -116h129v-74h-129z" />
    <glyph glyph-name="Eacute" unicode="&#xc9;" horiz-adv-x="566" 
d="M391 924l79 -36l-124 -99h-75zM320 329c-109 0 -188 -56 -188 -132c0 -77 81 -128 187 -128c65 0 148 24 194 49l32 -64c-54 -32 -148 -57 -229 -57c-154 0 -265 80 -265 193c0 87 69 162 170 180c-80 17 -137 81 -137 157c0 103 99 176 240 176c64 0 145 -17 192 -42
l-28 -64c-43 21 -108 33 -160 33c-97 0 -169 -42 -169 -111c0 -66 66 -116 161 -116h129v-74h-129z" />
    <glyph glyph-name="Ebreve" unicode="&#x114;" horiz-adv-x="566" 
d="M252 914c2 -42 32 -73 72 -73s70 31 72 73h55c-3 -76 -56 -129 -127 -129s-124 53 -127 129h55zM320 329c-109 0 -188 -56 -188 -132c0 -77 81 -128 187 -128c65 0 148 24 194 49l32 -64c-54 -32 -148 -57 -229 -57c-154 0 -265 80 -265 193c0 87 69 162 170 180
c-80 17 -137 81 -137 157c0 103 99 176 240 176c64 0 145 -17 192 -42l-28 -64c-43 21 -108 33 -160 33c-97 0 -169 -42 -169 -111c0 -66 66 -116 161 -116h129v-74h-129z" />
    <glyph glyph-name="Ecaron" unicode="&#x11a;" horiz-adv-x="566" 
d="M177 919h73l72 -94l72 94h73l-104 -135h-82zM320 329c-109 0 -188 -56 -188 -132c0 -77 81 -128 187 -128c65 0 148 24 194 49l32 -64c-54 -32 -148 -57 -229 -57c-154 0 -265 80 -265 193c0 87 69 162 170 180c-80 17 -137 81 -137 157c0 103 99 176 240 176
c64 0 145 -17 192 -42l-28 -64c-43 21 -108 33 -160 33c-97 0 -169 -42 -169 -111c0 -66 66 -116 161 -116h129v-74h-129z" />
    <glyph glyph-name="uni1E1C" unicode="&#x1e1c;" horiz-adv-x="566" 
d="M324 786c-71 0 -124 53 -127 129h55c2 -42 32 -73 72 -73s70 31 72 73h55c-3 -76 -56 -129 -127 -129zM317 -57c41 -5 71 -32 71 -75c1 -54 -41 -90 -97 -90c-30 0 -61 10 -81 25l17 41c16 -12 39 -20 59 -20c33 0 54 23 53 48c0 23 -18 43 -50 43c-10 0 -24 -2 -33 -3
l37 86c-142 7 -242 85 -242 192c0 87 69 162 170 180c-80 17 -137 81 -137 157c0 103 99 176 240 176c64 0 145 -17 192 -42l-28 -64c-43 21 -108 33 -160 33c-97 0 -169 -42 -169 -111c0 -66 66 -116 161 -116h129v-74h-129c-109 0 -188 -56 -188 -132
c0 -77 81 -128 187 -128c65 0 148 24 194 49l32 -64c-48 -29 -129 -52 -203 -56z" />
    <glyph glyph-name="uni1E1C.ss01" horiz-adv-x="566" 
d="M324 786c-71 0 -124 53 -127 129h55c2 -42 32 -73 72 -73s70 31 72 73h55c-3 -76 -56 -129 -127 -129zM317 -57c41 -5 71 -32 71 -75c1 -54 -41 -90 -97 -90c-30 0 -61 10 -81 25l17 41c16 -12 39 -20 59 -20c33 0 54 23 53 48c0 23 -18 43 -50 43c-10 0 -24 -2 -33 -3
l37 86c-142 7 -242 85 -242 192c0 87 69 162 170 180c-80 17 -137 81 -137 157c0 103 99 176 240 176c64 0 145 -17 192 -42l-28 -64c-43 21 -108 33 -160 33c-97 0 -169 -42 -169 -111c0 -66 66 -116 161 -116h129v-74h-129c-109 0 -188 -56 -188 -132
c0 -77 81 -128 187 -128c65 0 148 24 194 49l32 -64c-48 -29 -129 -52 -203 -56z" />
    <glyph glyph-name="Ecircumflex" unicode="&#xca;" horiz-adv-x="566" 
d="M286 919h76l102 -129h-68l-72 91l-72 -91h-68zM320 329c-109 0 -188 -56 -188 -132c0 -77 81 -128 187 -128c65 0 148 24 194 49l32 -64c-54 -32 -148 -57 -229 -57c-154 0 -265 80 -265 193c0 87 69 162 170 180c-80 17 -137 81 -137 157c0 103 99 176 240 176
c64 0 145 -17 192 -42l-28 -64c-43 21 -108 33 -160 33c-97 0 -169 -42 -169 -111c0 -66 66 -116 161 -116h129v-74h-129z" />
    <glyph glyph-name="uni1EBE" unicode="&#x1ebe;" horiz-adv-x="566" 
d="M541 1026l69 -36l-125 -99h-64zM286 921h76l102 -129h-68l-72 91l-72 -91h-68zM320 329c-109 0 -188 -56 -188 -132c0 -77 81 -128 187 -128c65 0 148 24 194 49l32 -64c-54 -32 -148 -57 -229 -57c-154 0 -265 80 -265 193c0 87 69 162 170 180c-80 17 -137 81 -137 157
c0 103 99 176 240 176c64 0 145 -17 192 -42l-28 -64c-43 21 -108 33 -160 33c-97 0 -169 -42 -169 -111c0 -66 66 -116 161 -116h129v-74h-129z" />
    <glyph glyph-name="uni1EBE.ss01" horiz-adv-x="566" 
d="M541 1026l69 -36l-125 -99h-64zM286 921h76l102 -129h-68l-72 91l-72 -91h-68zM320 329c-109 0 -188 -56 -188 -132c0 -77 81 -128 187 -128c65 0 148 24 194 49l32 -64c-54 -32 -148 -57 -229 -57c-154 0 -265 80 -265 193c0 87 69 162 170 180c-80 17 -137 81 -137 157
c0 103 99 176 240 176c64 0 145 -17 192 -42l-28 -64c-43 21 -108 33 -160 33c-97 0 -169 -42 -169 -111c0 -66 66 -116 161 -116h129v-74h-129z" />
    <glyph glyph-name="uni1EC6" unicode="&#x1ec6;" horiz-adv-x="566" 
d="M362 921l102 -129h-68l-72 91l-72 -91h-68l102 129h76zM320 329c-109 0 -188 -56 -188 -132c0 -77 81 -128 187 -128c65 0 148 24 194 49l32 -64c-54 -32 -148 -57 -229 -57c-154 0 -265 80 -265 193c0 87 69 162 170 180c-80 17 -137 81 -137 157c0 103 99 176 240 176
c64 0 145 -17 192 -42l-28 -64c-43 21 -108 33 -160 33c-97 0 -169 -42 -169 -111c0 -66 66 -116 161 -116h129v-74h-129zM318 -55c29 0 51 -23 51 -53s-22 -54 -51 -54s-51 24 -51 54s22 53 51 53z" />
    <glyph glyph-name="uni1EC6.ss01" horiz-adv-x="566" 
d="M362 921l102 -129h-68l-72 91l-72 -91h-68l102 129h76zM320 329c-109 0 -188 -56 -188 -132c0 -77 81 -128 187 -128c65 0 148 24 194 49l32 -64c-54 -32 -148 -57 -229 -57c-154 0 -265 80 -265 193c0 87 69 162 170 180c-80 17 -137 81 -137 157c0 103 99 176 240 176
c64 0 145 -17 192 -42l-28 -64c-43 21 -108 33 -160 33c-97 0 -169 -42 -169 -111c0 -66 66 -116 161 -116h129v-74h-129zM318 -55c29 0 51 -23 51 -53s-22 -54 -51 -54s-51 24 -51 54s22 53 51 53z" />
    <glyph glyph-name="uni1EC0" unicode="&#x1ec0;" horiz-adv-x="566" 
d="M425 1012l120 -135h-64l-124 99zM286 921h76l102 -129h-68l-72 91l-72 -91h-68zM320 329c-109 0 -188 -56 -188 -132c0 -77 81 -128 187 -128c65 0 148 24 194 49l32 -64c-54 -32 -148 -57 -229 -57c-154 0 -265 80 -265 193c0 87 69 162 170 180
c-80 17 -137 81 -137 157c0 103 99 176 240 176c64 0 145 -17 192 -42l-28 -64c-43 21 -108 33 -160 33c-97 0 -169 -42 -169 -111c0 -66 66 -116 161 -116h129v-74h-129z" />
    <glyph glyph-name="uni1EC0.ss01" horiz-adv-x="566" 
d="M425 1012l120 -135h-64l-124 99zM286 921h76l102 -129h-68l-72 91l-72 -91h-68zM320 329c-109 0 -188 -56 -188 -132c0 -77 81 -128 187 -128c65 0 148 24 194 49l32 -64c-54 -32 -148 -57 -229 -57c-154 0 -265 80 -265 193c0 87 69 162 170 180
c-80 17 -137 81 -137 157c0 103 99 176 240 176c64 0 145 -17 192 -42l-28 -64c-43 21 -108 33 -160 33c-97 0 -169 -42 -169 -111c0 -66 66 -116 161 -116h129v-74h-129z" />
    <glyph glyph-name="uni1EC2" unicode="&#x1ec2;" horiz-adv-x="566" 
d="M346 987c7 45 43 73 92 73c52 0 86 -35 86 -82c0 -39 -20 -66 -55 -93l-41 14c33 26 53 48 53 77c0 22 -15 40 -44 40s-47 -17 -50 -44zM286 921h76l102 -129h-68l-72 91l-72 -91h-68zM320 329c-109 0 -188 -56 -188 -132c0 -77 81 -128 187 -128c65 0 148 24 194 49
l32 -64c-54 -32 -148 -57 -229 -57c-154 0 -265 80 -265 193c0 87 69 162 170 180c-80 17 -137 81 -137 157c0 103 99 176 240 176c64 0 145 -17 192 -42l-28 -64c-43 21 -108 33 -160 33c-97 0 -169 -42 -169 -111c0 -66 66 -116 161 -116h129v-74h-129z" />
    <glyph glyph-name="uni1EC2.ss01" horiz-adv-x="566" 
d="M346 987c7 45 43 73 92 73c52 0 86 -35 86 -82c0 -39 -20 -66 -55 -93l-41 14c33 26 53 48 53 77c0 22 -15 40 -44 40s-47 -17 -50 -44zM286 921h76l102 -129h-68l-72 91l-72 -91h-68zM320 329c-109 0 -188 -56 -188 -132c0 -77 81 -128 187 -128c65 0 148 24 194 49
l32 -64c-54 -32 -148 -57 -229 -57c-154 0 -265 80 -265 193c0 87 69 162 170 180c-80 17 -137 81 -137 157c0 103 99 176 240 176c64 0 145 -17 192 -42l-28 -64c-43 21 -108 33 -160 33c-97 0 -169 -42 -169 -111c0 -66 66 -116 161 -116h129v-74h-129z" />
    <glyph glyph-name="uni1EC4" unicode="&#x1ec4;" horiz-adv-x="566" 
d="M471 1046c0 -73 -29 -111 -83 -111c-59 0 -82 60 -122 60c-27 0 -42 -19 -42 -53h-53c0 73 29 112 83 112c56 0 82 -61 122 -61c27 0 42 19 42 53h53zM286 921h76l102 -129h-68l-72 91l-72 -91h-68zM320 329c-109 0 -188 -56 -188 -132c0 -77 81 -128 187 -128
c65 0 148 24 194 49l32 -64c-54 -32 -148 -57 -229 -57c-154 0 -265 80 -265 193c0 87 69 162 170 180c-80 17 -137 81 -137 157c0 103 99 176 240 176c64 0 145 -17 192 -42l-28 -64c-43 21 -108 33 -160 33c-97 0 -169 -42 -169 -111c0 -66 66 -116 161 -116h129v-74h-129
z" />
    <glyph glyph-name="uni1EC4.ss01" horiz-adv-x="566" 
d="M471 1046c0 -73 -29 -111 -83 -111c-59 0 -82 60 -122 60c-27 0 -42 -19 -42 -53h-53c0 73 29 112 83 112c56 0 82 -61 122 -61c27 0 42 19 42 53h53zM286 921h76l102 -129h-68l-72 91l-72 -91h-68zM320 329c-109 0 -188 -56 -188 -132c0 -77 81 -128 187 -128
c65 0 148 24 194 49l32 -64c-54 -32 -148 -57 -229 -57c-154 0 -265 80 -265 193c0 87 69 162 170 180c-80 17 -137 81 -137 157c0 103 99 176 240 176c64 0 145 -17 192 -42l-28 -64c-43 21 -108 33 -160 33c-97 0 -169 -42 -169 -111c0 -66 66 -116 161 -116h129v-74h-129
z" />
    <glyph glyph-name="uni0204" unicode="&#x204;" horiz-adv-x="566" 
d="M201 928l91 -139h-65l-93 106zM348 928l91 -139h-65l-93 106zM320 329c-109 0 -188 -56 -188 -132c0 -77 81 -128 187 -128c65 0 148 24 194 49l32 -64c-54 -32 -148 -57 -229 -57c-154 0 -265 80 -265 193c0 87 69 162 170 180c-80 17 -137 81 -137 157
c0 103 99 176 240 176c64 0 145 -17 192 -42l-28 -64c-43 21 -108 33 -160 33c-97 0 -169 -42 -169 -111c0 -66 66 -116 161 -116h129v-74h-129z" />
    <glyph glyph-name="uni0204.ss01" horiz-adv-x="566" 
d="M201 928l91 -139h-65l-93 106zM348 928l91 -139h-65l-93 106zM320 329c-109 0 -188 -56 -188 -132c0 -77 81 -128 187 -128c65 0 148 24 194 49l32 -64c-54 -32 -148 -57 -229 -57c-154 0 -265 80 -265 193c0 87 69 162 170 180c-80 17 -137 81 -137 157
c0 103 99 176 240 176c64 0 145 -17 192 -42l-28 -64c-43 21 -108 33 -160 33c-97 0 -169 -42 -169 -111c0 -66 66 -116 161 -116h129v-74h-129z" />
    <glyph glyph-name="Edieresis" unicode="&#xcb;" horiz-adv-x="566" 
d="M241 901c27 0 48 -21 48 -50c0 -27 -21 -49 -48 -49s-47 22 -47 49c0 29 20 50 47 50zM408 901c26 0 47 -21 47 -50c0 -27 -21 -49 -47 -49c-27 0 -48 22 -48 49c0 29 21 50 48 50zM320 329c-109 0 -188 -56 -188 -132c0 -77 81 -128 187 -128c65 0 148 24 194 49l32 -64
c-54 -32 -148 -57 -229 -57c-154 0 -265 80 -265 193c0 87 69 162 170 180c-80 17 -137 81 -137 157c0 103 99 176 240 176c64 0 145 -17 192 -42l-28 -64c-43 21 -108 33 -160 33c-97 0 -169 -42 -169 -111c0 -66 66 -116 161 -116h129v-74h-129z" />
    <glyph glyph-name="Edotaccent" unicode="&#x116;" horiz-adv-x="566" 
d="M324 904c29 0 51 -22 51 -53c0 -30 -22 -53 -51 -53s-51 23 -51 53c0 31 22 53 51 53zM320 329c-109 0 -188 -56 -188 -132c0 -77 81 -128 187 -128c65 0 148 24 194 49l32 -64c-54 -32 -148 -57 -229 -57c-154 0 -265 80 -265 193c0 87 69 162 170 180
c-80 17 -137 81 -137 157c0 103 99 176 240 176c64 0 145 -17 192 -42l-28 -64c-43 21 -108 33 -160 33c-97 0 -169 -42 -169 -111c0 -66 66 -116 161 -116h129v-74h-129z" />
    <glyph glyph-name="uni1EB8" unicode="&#x1eb8;" horiz-adv-x="566" 
d="M320 329c-109 0 -188 -56 -188 -132c0 -77 81 -128 187 -128c65 0 148 24 194 49l32 -64c-54 -32 -148 -57 -229 -57c-154 0 -265 80 -265 193c0 87 69 162 170 180c-80 17 -137 81 -137 157c0 103 99 176 240 176c64 0 145 -17 192 -42l-28 -64c-43 21 -108 33 -160 33
c-97 0 -169 -42 -169 -111c0 -66 66 -116 161 -116h129v-74h-129zM318 -55c29 0 51 -23 51 -53s-22 -54 -51 -54s-51 24 -51 54s22 53 51 53z" />
    <glyph glyph-name="uni1EB8.ss01" horiz-adv-x="566" 
d="M320 329c-109 0 -188 -56 -188 -132c0 -77 81 -128 187 -128c65 0 148 24 194 49l32 -64c-54 -32 -148 -57 -229 -57c-154 0 -265 80 -265 193c0 87 69 162 170 180c-80 17 -137 81 -137 157c0 103 99 176 240 176c64 0 145 -17 192 -42l-28 -64c-43 21 -108 33 -160 33
c-97 0 -169 -42 -169 -111c0 -66 66 -116 161 -116h129v-74h-129zM318 -55c29 0 51 -23 51 -53s-22 -54 -51 -54s-51 24 -51 54s22 53 51 53z" />
    <glyph glyph-name="Egrave" unicode="&#xc8;" horiz-adv-x="566" 
d="M254 924l120 -135h-75l-125 99zM320 329c-109 0 -188 -56 -188 -132c0 -77 81 -128 187 -128c65 0 148 24 194 49l32 -64c-54 -32 -148 -57 -229 -57c-154 0 -265 80 -265 193c0 87 69 162 170 180c-80 17 -137 81 -137 157c0 103 99 176 240 176c64 0 145 -17 192 -42
l-28 -64c-43 21 -108 33 -160 33c-97 0 -169 -42 -169 -111c0 -66 66 -116 161 -116h129v-74h-129z" />
    <glyph glyph-name="uni1EBA" unicode="&#x1eba;" horiz-adv-x="566" 
d="M231 856c7 45 43 73 91 73c53 0 87 -35 87 -82c0 -39 -20 -66 -55 -93l-41 14c33 26 53 48 53 77c0 22 -15 40 -44 40s-47 -17 -50 -44zM320 329c-109 0 -188 -56 -188 -132c0 -77 81 -128 187 -128c65 0 148 24 194 49l32 -64c-54 -32 -148 -57 -229 -57
c-154 0 -265 80 -265 193c0 87 69 162 170 180c-80 17 -137 81 -137 157c0 103 99 176 240 176c64 0 145 -17 192 -42l-28 -64c-43 21 -108 33 -160 33c-97 0 -169 -42 -169 -111c0 -66 66 -116 161 -116h129v-74h-129z" />
    <glyph glyph-name="uni1EBA.ss01" horiz-adv-x="566" 
d="M231 856c7 45 43 73 91 73c53 0 87 -35 87 -82c0 -39 -20 -66 -55 -93l-41 14c33 26 53 48 53 77c0 22 -15 40 -44 40s-47 -17 -50 -44zM320 329c-109 0 -188 -56 -188 -132c0 -77 81 -128 187 -128c65 0 148 24 194 49l32 -64c-54 -32 -148 -57 -229 -57
c-154 0 -265 80 -265 193c0 87 69 162 170 180c-80 17 -137 81 -137 157c0 103 99 176 240 176c64 0 145 -17 192 -42l-28 -64c-43 21 -108 33 -160 33c-97 0 -169 -42 -169 -111c0 -66 66 -116 161 -116h129v-74h-129z" />
    <glyph glyph-name="uni0206" unicode="&#x206;" horiz-adv-x="566" 
d="M252 786h-55c3 76 56 129 127 129s124 -53 127 -129h-55c-2 42 -32 73 -72 73s-70 -31 -72 -73zM320 329c-109 0 -188 -56 -188 -132c0 -77 81 -128 187 -128c65 0 148 24 194 49l32 -64c-54 -32 -148 -57 -229 -57c-154 0 -265 80 -265 193c0 87 69 162 170 180
c-80 17 -137 81 -137 157c0 103 99 176 240 176c64 0 145 -17 192 -42l-28 -64c-43 21 -108 33 -160 33c-97 0 -169 -42 -169 -111c0 -66 66 -116 161 -116h129v-74h-129z" />
    <glyph glyph-name="uni0206.ss01" horiz-adv-x="566" 
d="M252 786h-55c3 76 56 129 127 129s124 -53 127 -129h-55c-2 42 -32 73 -72 73s-70 -31 -72 -73zM320 329c-109 0 -188 -56 -188 -132c0 -77 81 -128 187 -128c65 0 148 24 194 49l32 -64c-54 -32 -148 -57 -229 -57c-154 0 -265 80 -265 193c0 87 69 162 170 180
c-80 17 -137 81 -137 157c0 103 99 176 240 176c64 0 145 -17 192 -42l-28 -64c-43 21 -108 33 -160 33c-97 0 -169 -42 -169 -111c0 -66 66 -116 161 -116h129v-74h-129z" />
    <glyph glyph-name="Emacron" unicode="&#x112;" horiz-adv-x="566" 
d="M204 880h241v-59h-241v59zM320 329c-109 0 -188 -56 -188 -132c0 -77 81 -128 187 -128c65 0 148 24 194 49l32 -64c-54 -32 -148 -57 -229 -57c-154 0 -265 80 -265 193c0 87 69 162 170 180c-80 17 -137 81 -137 157c0 103 99 176 240 176c64 0 145 -17 192 -42
l-28 -64c-43 21 -108 33 -160 33c-97 0 -169 -42 -169 -111c0 -66 66 -116 161 -116h129v-74h-129z" />
    <glyph glyph-name="uni1E16" unicode="&#x1e16;" horiz-adv-x="566" 
d="M397 1066l79 -36l-124 -99h-75zM203 860h241v-59h-241v59zM320 329c-109 0 -188 -56 -188 -132c0 -77 81 -128 187 -128c65 0 148 24 194 49l32 -64c-54 -32 -148 -57 -229 -57c-154 0 -265 80 -265 193c0 87 69 162 170 180c-80 17 -137 81 -137 157
c0 103 99 176 240 176c64 0 145 -17 192 -42l-28 -64c-43 21 -108 33 -160 33c-97 0 -169 -42 -169 -111c0 -66 66 -116 161 -116h129v-74h-129z" />
    <glyph glyph-name="uni1E16.ss01" horiz-adv-x="566" 
d="M397 1066l79 -36l-124 -99h-75zM203 860h241v-59h-241v59zM320 329c-109 0 -188 -56 -188 -132c0 -77 81 -128 187 -128c65 0 148 24 194 49l32 -64c-54 -32 -148 -57 -229 -57c-154 0 -265 80 -265 193c0 87 69 162 170 180c-80 17 -137 81 -137 157
c0 103 99 176 240 176c64 0 145 -17 192 -42l-28 -64c-43 21 -108 33 -160 33c-97 0 -169 -42 -169 -111c0 -66 66 -116 161 -116h129v-74h-129z" />
    <glyph glyph-name="uni1E14" unicode="&#x1e14;" horiz-adv-x="566" 
d="M251 1066l120 -135h-75l-125 99zM203 860h241v-59h-241v59zM320 329c-109 0 -188 -56 -188 -132c0 -77 81 -128 187 -128c65 0 148 24 194 49l32 -64c-54 -32 -148 -57 -229 -57c-154 0 -265 80 -265 193c0 87 69 162 170 180c-80 17 -137 81 -137 157
c0 103 99 176 240 176c64 0 145 -17 192 -42l-28 -64c-43 21 -108 33 -160 33c-97 0 -169 -42 -169 -111c0 -66 66 -116 161 -116h129v-74h-129z" />
    <glyph glyph-name="uni1E14.ss01" horiz-adv-x="566" 
d="M251 1066l120 -135h-75l-125 99zM203 860h241v-59h-241v59zM320 329c-109 0 -188 -56 -188 -132c0 -77 81 -128 187 -128c65 0 148 24 194 49l32 -64c-54 -32 -148 -57 -229 -57c-154 0 -265 80 -265 193c0 87 69 162 170 180c-80 17 -137 81 -137 157
c0 103 99 176 240 176c64 0 145 -17 192 -42l-28 -64c-43 21 -108 33 -160 33c-97 0 -169 -42 -169 -111c0 -66 66 -116 161 -116h129v-74h-129z" />
    <glyph glyph-name="Eogonek" unicode="&#x118;" horiz-adv-x="566" 
d="M430 -153c19 0 37 13 53 33l26 -30c-21 -30 -54 -50 -87 -50c-38 0 -73 24 -73 74c0 37 19 78 59 132c-31 -6 -63 -9 -93 -9c-153 0 -265 80 -265 193c0 87 69 162 170 180c-79 17 -137 81 -137 157c0 103 100 176 241 176c64 0 145 -17 191 -42l-27 -64
c-43 21 -108 33 -161 33c-97 0 -168 -42 -168 -111c0 -66 66 -116 160 -116h130v-74h-130c-108 0 -187 -56 -187 -132c0 -77 80 -128 187 -128c65 0 148 24 194 49l32 -64c-22 -13 -52 -25 -84 -35c-49 -63 -67 -103 -67 -134c0 -24 15 -38 36 -38z" />
    <glyph glyph-name="uni1EBC" unicode="&#x1ebc;" horiz-adv-x="566" 
d="M474 910c0 -73 -29 -112 -83 -112c-58 0 -81 61 -121 61c-28 0 -43 -19 -43 -53h-52c0 73 29 112 83 112c55 0 82 -61 121 -61c28 0 43 19 43 53h52zM320 329c-109 0 -188 -56 -188 -132c0 -77 81 -128 187 -128c65 0 148 24 194 49l32 -64c-54 -32 -148 -57 -229 -57
c-154 0 -265 80 -265 193c0 87 69 162 170 180c-80 17 -137 81 -137 157c0 103 99 176 240 176c64 0 145 -17 192 -42l-28 -64c-43 21 -108 33 -160 33c-97 0 -169 -42 -169 -111c0 -66 66 -116 161 -116h129v-74h-129z" />
    <glyph glyph-name="uni1EBC.ss01" horiz-adv-x="566" 
d="M474 910c0 -73 -29 -112 -83 -112c-58 0 -81 61 -121 61c-28 0 -43 -19 -43 -53h-52c0 73 29 112 83 112c55 0 82 -61 121 -61c28 0 43 19 43 53h52zM320 329c-109 0 -188 -56 -188 -132c0 -77 81 -128 187 -128c65 0 148 24 194 49l32 -64c-54 -32 -148 -57 -229 -57
c-154 0 -265 80 -265 193c0 87 69 162 170 180c-80 17 -137 81 -137 157c0 103 99 176 240 176c64 0 145 -17 192 -42l-28 -64c-43 21 -108 33 -160 33c-97 0 -169 -42 -169 -111c0 -66 66 -116 161 -116h129v-74h-129z" />
    <glyph glyph-name="F" unicode="F" horiz-adv-x="516" 
d="M313 629c-87 0 -143 -56 -143 -143v-122h281v-74h-281v-290h-80v487c0 131 85 216 217 216c71 0 147 -17 200 -43l-21 -72c-50 24 -119 41 -173 41z" />
    <glyph glyph-name="G" unicode="G" horiz-adv-x="754" 
d="M594 151v200h71v-351h-62v74c-57 -47 -130 -77 -205 -77c-199 0 -358 156 -358 353s163 352 368 352c97 0 192 -37 259 -96l-46 -58c-57 51 -133 81 -212 81c-159 0 -288 -124 -288 -279c0 -156 127 -280 284 -280c73 0 141 31 189 81z" />
    <glyph glyph-name="Gbreve" unicode="&#x11e;" horiz-adv-x="754" 
d="M378 785c-71 0 -124 53 -127 129h55c2 -42 32 -73 72 -73s70 31 72 73h55c-3 -76 -56 -129 -127 -129zM594 151v200h71v-351h-62v74c-57 -47 -130 -77 -205 -77c-199 0 -358 156 -358 353s163 352 368 352c97 0 192 -37 259 -96l-46 -58c-57 51 -133 81 -212 81
c-159 0 -288 -124 -288 -279c0 -156 127 -280 284 -280c73 0 141 31 189 81z" />
    <glyph glyph-name="Gcaron" unicode="&#x1e6;" horiz-adv-x="754" 
d="M419 786h-82l-104 135h73l72 -94l72 94h73zM594 151v200h71v-351h-62v74c-57 -47 -130 -77 -205 -77c-199 0 -358 156 -358 353s163 352 368 352c97 0 192 -37 259 -96l-46 -58c-57 51 -133 81 -212 81c-159 0 -288 -124 -288 -279c0 -156 127 -280 284 -280
c73 0 141 31 189 81z" />
    <glyph glyph-name="Gcaron.ss01" horiz-adv-x="754" 
d="M419 786h-82l-104 135h73l72 -94l72 94h73zM594 151v200h71v-351h-62v74c-57 -47 -130 -77 -205 -77c-199 0 -358 156 -358 353s163 352 368 352c97 0 192 -37 259 -96l-46 -58c-57 51 -133 81 -212 81c-159 0 -288 -124 -288 -279c0 -156 127 -280 284 -280
c73 0 141 31 189 81z" />
    <glyph glyph-name="Gcircumflex" unicode="&#x11c;" horiz-adv-x="754" 
d="M378 881l-72 -91h-68l102 129h76l102 -129h-68zM594 151v200h71v-351h-62v74c-57 -47 -130 -77 -205 -77c-199 0 -358 156 -358 353s163 352 368 352c97 0 192 -37 259 -96l-46 -58c-57 51 -133 81 -212 81c-159 0 -288 -124 -288 -279c0 -156 127 -280 284 -280
c73 0 141 31 189 81z" />
    <glyph glyph-name="Gcommaaccent" unicode="&#x122;" horiz-adv-x="754" 
d="M594 151v200h71v-351h-62v74c-57 -47 -130 -77 -205 -77c-199 0 -358 156 -358 353s163 352 368 352c97 0 192 -37 259 -96l-46 -58c-57 51 -133 81 -212 81c-159 0 -288 -124 -288 -279c0 -156 127 -280 284 -280c73 0 141 31 189 81zM378 -55c25 0 47 -19 47 -50
c0 -15 -5 -28 -14 -42l-47 -71h-44l33 72c-16 9 -23 25 -23 42c0 28 21 49 48 49z" />
    <glyph glyph-name="Gdotaccent" unicode="&#x120;" horiz-adv-x="754" 
d="M378 798c-29 0 -51 23 -51 53c0 31 22 53 51 53s51 -22 51 -53c0 -30 -22 -53 -51 -53zM594 151v200h71v-351h-62v74c-57 -47 -130 -77 -205 -77c-199 0 -358 156 -358 353s163 352 368 352c97 0 192 -37 259 -96l-46 -58c-57 51 -133 81 -212 81
c-159 0 -288 -124 -288 -279c0 -156 127 -280 284 -280c73 0 141 31 189 81z" />
    <glyph glyph-name="uni1E20" unicode="&#x1e20;" horiz-adv-x="754" 
d="M498 860v-59h-241v59h241zM594 151v200h71v-351h-62v74c-57 -47 -130 -77 -205 -77c-199 0 -358 156 -358 353s163 352 368 352c97 0 192 -37 259 -96l-46 -58c-57 51 -133 81 -212 81c-159 0 -288 -124 -288 -279c0 -156 127 -280 284 -280c73 0 141 31 189 81z" />
    <glyph glyph-name="uni1E20.ss01" horiz-adv-x="754" 
d="M498 860v-59h-241v59h241zM594 151v200h71v-351h-62v74c-57 -47 -130 -77 -205 -77c-199 0 -358 156 -358 353s163 352 368 352c97 0 192 -37 259 -96l-46 -58c-57 51 -133 81 -212 81c-159 0 -288 -124 -288 -279c0 -156 127 -280 284 -280c73 0 141 31 189 81z" />
    <glyph glyph-name="H" unicode="H" horiz-adv-x="794" 
d="M106 700h80v-317h422v317h80v-700h-80v310h-422v-310h-80v700z" />
    <glyph glyph-name="Hbar" unicode="&#x126;" horiz-adv-x="839" 
d="M796 580v-60h-86v-520h-80v310h-422v-310h-80v520h-86v60h86v120h80v-120h422v120h80v-120h86zM630 383v137h-422v-137h422z" />
    <glyph glyph-name="uni1E2A" unicode="&#x1e2a;" horiz-adv-x="794" 
d="M106 700h80v-317h422v317h80v-700h-80v310h-422v-310h-80v700zM325 -50c2 -42 32 -73 72 -73s70 31 72 73h55c-3 -76 -56 -129 -127 -129s-124 53 -127 129h55z" />
    <glyph glyph-name="Hcircumflex" unicode="&#x124;" horiz-adv-x="794" 
d="M362 919h76l102 -129h-68l-72 91l-72 -91h-68zM106 700h80v-317h422v317h80v-700h-80v310h-422v-310h-80v700z" />
    <glyph glyph-name="uni1E24" unicode="&#x1e24;" horiz-adv-x="794" 
d="M106 700h80v-317h422v317h80v-700h-80v310h-422v-310h-80v700zM397 -56c29 0 51 -22 51 -53c0 -30 -22 -53 -51 -53s-51 23 -51 53c0 31 22 53 51 53z" />
    <glyph glyph-name="I" unicode="I" horiz-adv-x="470" 
d="M416 626h-141v-552h141v-74h-361v74h140v552h-140v74h361v-74z" />
    <glyph glyph-name="IJ" unicode="&#x132;" horiz-adv-x="953" 
d="M416 700v-74h-141v-552h141v-74h-361v74h140v552h-140v74h361zM533 700h330v-591c0 -136 -74 -212 -200 -212c-77 0 -144 36 -193 99l40 62c44 -53 99 -82 153 -82c77 0 120 47 120 135v515h-250v74z" />
    <glyph glyph-name="Iacute" unicode="&#xcd;" horiz-adv-x="470" 
d="M381 888l-124 -99h-75l120 135zM416 626h-141v-552h141v-74h-361v74h140v552h-140v74h361v-74z" />
    <glyph glyph-name="Iacute_J.loclNLD" horiz-adv-x="593" 
d="M867 888l-124 -99h-75l120 135zM199 877l-124 -99h-75l120 135zM416 700v-74h-141v-552h141v-74h-361v74h140v552h-140v74h361zM533 626v74h330v-591c0 -136 -74 -212 -200 -212c-77 0 -144 36 -193 99l40 62c44 -53 99 -82 153 -82c77 0 120 47 120 135v515h-250z" />
    <glyph glyph-name="Iacute_J.loclNLD.ss01" horiz-adv-x="953" 
d="M387 888l-124 -99h-75l120 135zM843 887l-124 -99h-75l120 135zM416 700v-74h-141v-552h141v-74h-361v74h140v552h-140v74h361zM533 700h330v-591c0 -136 -74 -212 -200 -212c-77 0 -144 36 -193 99l40 62c44 -53 99 -82 153 -82c77 0 120 47 120 135v515h-250v74z" />
    <glyph glyph-name="Ibreve" unicode="&#x12c;" horiz-adv-x="470" 
d="M235 785c-71 0 -124 53 -127 129h55c2 -42 32 -73 72 -73s70 31 72 73h55c-3 -76 -56 -129 -127 -129zM416 626h-141v-552h141v-74h-361v74h140v552h-140v74h361v-74z" />
    <glyph glyph-name="Icircumflex" unicode="&#xce;" horiz-adv-x="470" 
d="M235 881l-72 -91h-68l102 129h76l102 -129h-68zM416 626h-141v-552h141v-74h-361v74h140v552h-140v74h361v-74z" />
    <glyph glyph-name="uni0208" unicode="&#x208;" horiz-adv-x="470" 
d="M203 789h-65l-93 106l67 33zM350 789h-65l-93 106l67 33zM416 626h-141v-552h141v-74h-361v74h140v552h-140v74h361v-74z" />
    <glyph glyph-name="uni0208.ss01" horiz-adv-x="470" 
d="M203 789h-65l-93 106l67 33zM350 789h-65l-93 106l67 33zM416 626h-141v-552h141v-74h-361v74h140v552h-140v74h361v-74z" />
    <glyph glyph-name="Idieresis" unicode="&#xcf;" horiz-adv-x="470" 
d="M152 802c-27 0 -47 22 -47 49c0 29 20 50 47 50s48 -21 48 -50c0 -27 -21 -49 -48 -49zM319 802c-27 0 -48 22 -48 49c0 29 21 50 48 50c26 0 47 -21 47 -50c0 -27 -21 -49 -47 -49zM416 626h-141v-552h141v-74h-361v74h140v552h-140v74h361v-74z" />
    <glyph glyph-name="uni1E2E" unicode="&#x1e2e;" horiz-adv-x="470" 
d="M387 1053l-124 -99h-75l120 135zM151 802c-27 0 -47 22 -47 49c0 29 20 50 47 50s48 -21 48 -50c0 -27 -21 -49 -48 -49zM270 851c0 29 21 50 48 50c26 0 47 -21 47 -50c0 -27 -21 -49 -47 -49c-27 0 -48 22 -48 49zM416 626h-141v-552h141v-74h-361v74h140v552h-140v74
h361v-74z" />
    <glyph glyph-name="uni1E2E.ss01" horiz-adv-x="470" 
d="M387 1053l-124 -99h-75l120 135zM151 802c-27 0 -47 22 -47 49c0 29 20 50 47 50s48 -21 48 -50c0 -27 -21 -49 -48 -49zM270 851c0 29 21 50 48 50c26 0 47 -21 47 -50c0 -27 -21 -49 -47 -49c-27 0 -48 22 -48 49zM416 626h-141v-552h141v-74h-361v74h140v552h-140v74
h361v-74z" />
    <glyph glyph-name="Idotaccent" unicode="&#x130;" horiz-adv-x="470" 
d="M235 798c-29 0 -51 23 -51 53c0 31 22 53 51 53s51 -22 51 -53c0 -30 -22 -53 -51 -53zM416 626h-141v-552h141v-74h-361v74h140v552h-140v74h361v-74z" />
    <glyph glyph-name="uni1ECA" unicode="&#x1eca;" horiz-adv-x="470" 
d="M416 626h-141v-552h141v-74h-361v74h140v552h-140v74h361v-74zM235 -55c29 0 51 -23 51 -53s-22 -54 -51 -54s-51 24 -51 54s22 53 51 53z" />
    <glyph glyph-name="uni1ECA.ss01" horiz-adv-x="470" 
d="M416 626h-141v-552h141v-74h-361v74h140v552h-140v74h361v-74zM235 -55c29 0 51 -23 51 -53s-22 -54 -51 -54s-51 24 -51 54s22 53 51 53z" />
    <glyph glyph-name="Igrave" unicode="&#xcc;" horiz-adv-x="470" 
d="M285 789h-75l-125 99l80 36zM416 626h-141v-552h141v-74h-361v74h140v552h-140v74h361v-74z" />
    <glyph glyph-name="uni1EC8" unicode="&#x1ec8;" horiz-adv-x="470" 
d="M233 885c-29 0 -47 -17 -50 -44l-41 15c7 45 43 73 91 73c53 0 87 -35 87 -82c0 -39 -20 -66 -55 -93l-41 14c33 26 53 48 53 77c0 22 -15 40 -44 40zM416 626h-141v-552h141v-74h-361v74h140v552h-140v74h361v-74z" />
    <glyph glyph-name="uni1EC8.ss01" horiz-adv-x="470" 
d="M233 885c-29 0 -47 -17 -50 -44l-41 15c7 45 43 73 91 73c53 0 87 -35 87 -82c0 -39 -20 -66 -55 -93l-41 14c33 26 53 48 53 77c0 22 -15 40 -44 40zM416 626h-141v-552h141v-74h-361v74h140v552h-140v74h361v-74z" />
    <glyph glyph-name="uni020A" unicode="&#x20a;" horiz-adv-x="470" 
d="M235 859c-40 0 -70 -31 -72 -73h-55c3 76 56 129 127 129s124 -53 127 -129h-55c-2 42 -32 73 -72 73zM416 626h-141v-552h141v-74h-361v74h140v552h-140v74h361v-74z" />
    <glyph glyph-name="uni020A.ss01" horiz-adv-x="470" 
d="M235 859c-40 0 -70 -31 -72 -73h-55c3 76 56 129 127 129s124 -53 127 -129h-55c-2 42 -32 73 -72 73zM416 626h-141v-552h141v-74h-361v74h140v552h-140v74h361v-74z" />
    <glyph glyph-name="Imacron" unicode="&#x12a;" horiz-adv-x="470" 
d="M356 880v-59h-241v59h241zM416 626h-141v-552h141v-74h-361v74h140v552h-140v74h361v-74z" />
    <glyph glyph-name="Iogonek" unicode="&#x12e;" horiz-adv-x="470" 
d="M397 -120l26 -30c-22 -30 -54 -50 -87 -50c-38 0 -73 24 -73 74c0 35 17 74 55 126h-263v74h140v552h-140v74h361v-74h-141v-552h141v-74h-54c-40 -54 -54 -88 -54 -115c0 -24 15 -38 35 -38s38 13 54 33z" />
    <glyph glyph-name="Itilde" unicode="&#x128;" horiz-adv-x="470" 
d="M181 859c-28 0 -43 -19 -43 -53h-52c0 73 29 112 83 112c55 0 82 -61 121 -61c28 0 43 19 43 53h52c0 -73 -29 -112 -83 -112c-58 0 -81 61 -121 61zM416 626h-141v-552h141v-74h-361v74h140v552h-140v74h361v-74z" />
    <glyph glyph-name="J" unicode="J" horiz-adv-x="483" 
d="M393 109c0 -136 -74 -212 -200 -212c-77 0 -144 36 -193 99l40 62c44 -53 99 -82 153 -82c77 0 120 47 120 135v515h-250v74h330v-591z" />
    <glyph glyph-name="Jcircumflex" unicode="&#x134;" horiz-adv-x="483" 
d="M207 919h76l102 -129h-68l-72 91l-72 -91h-68zM393 109c0 -136 -74 -212 -200 -212c-77 0 -144 36 -193 99l40 62c44 -53 99 -82 153 -82c77 0 120 47 120 135v515h-250v74h330v-591z" />
    <glyph glyph-name="Jcircumflex.ss01" horiz-adv-x="483" 
d="M207 921h76l102 -129h-68l-72 91l-72 -91h-68zM393 109c0 -136 -74 -212 -200 -212c-77 0 -144 36 -193 99l40 62c44 -53 99 -82 153 -82c77 0 120 47 120 135v515h-250v74h330v-591z" />
    <glyph glyph-name="K" unicode="K" horiz-adv-x="699" 
d="M678 0h-98l-258 333l-136 -150v-183h-80v700h80v-407l376 407h95l-278 -305z" />
    <glyph glyph-name="Kcommaaccent" unicode="&#x136;" horiz-adv-x="699" 
d="M379 395l299 -395h-98l-258 333l-136 -150v-183h-80v700h80v-407l376 407h95zM346 -55c25 0 47 -19 47 -50c0 -15 -5 -28 -14 -42l-47 -71h-44l33 72c-16 9 -23 25 -23 42c0 28 21 49 48 49z" />
    <glyph glyph-name="L" unicode="L" horiz-adv-x="517" 
d="M106 700h80v-626h307v-74h-387v700z" />
    <glyph glyph-name="uni01C7" unicode="&#x1c7;" horiz-adv-x="1000" 
d="M106 700h80v-626h307v-74h-387v700zM910 109c0 -136 -74 -212 -200 -212c-77 0 -144 36 -193 99l40 62c44 -53 99 -82 153 -82c77 0 120 47 120 135v515h-250v74h330v-591z" />
    <glyph glyph-name="uni01C7.ss01" horiz-adv-x="1000" 
d="M106 700h80v-626h307v-74h-387v700zM910 109c0 -136 -74 -212 -200 -212c-77 0 -144 36 -193 99l40 62c44 -53 99 -82 153 -82c77 0 120 47 120 135v515h-250v74h330v-591z" />
    <glyph glyph-name="Lacute" unicode="&#x139;" horiz-adv-x="517" 
d="M218 924l79 -36l-124 -99h-75zM106 700h80v-626h307v-74h-387v700z" />
    <glyph glyph-name="Lcaron" unicode="&#x13d;" horiz-adv-x="517" 
d="M106 700h80v-626h307v-74h-387v700zM419 700h74l-20 -193h-54v193z" />
    <glyph glyph-name="Lcommaaccent" unicode="&#x13b;" horiz-adv-x="517" 
d="M186 74h307v-74h-387v700h80v-626zM300 -55c25 0 47 -19 47 -50c0 -15 -5 -28 -14 -42l-47 -71h-44l33 72c-16 9 -23 25 -23 42c0 28 21 49 48 49z" />
    <glyph glyph-name="Ldot" unicode="&#x13f;" horiz-adv-x="517" 
d="M106 700h80v-626h307v-74h-387v700zM403 448c26 0 47 -21 47 -49s-21 -50 -47 -50c-27 0 -47 22 -47 50s20 49 47 49z" />
    <glyph glyph-name="uni1E36" unicode="&#x1e36;" horiz-adv-x="517" 
d="M106 700h80v-626h307v-74h-387v700zM300 -56c29 0 51 -22 51 -53c0 -30 -22 -53 -51 -53s-51 23 -51 53c0 31 22 53 51 53z" />
    <glyph glyph-name="uni01C8" unicode="&#x1c8;" horiz-adv-x="784" 
d="M648 731c31 0 53 -23 53 -54c0 -30 -22 -53 -53 -53c-30 0 -53 23 -53 53c0 31 23 54 53 54zM106 700h80v-626h307v-74h-387v700zM687 -20c0 -121 -69 -177 -151 -177c-38 0 -77 13 -107 36l28 62c23 -17 50 -27 76 -27c46 -1 76 30 76 96v556h78v-546z" />
    <glyph glyph-name="uni1E3A" unicode="&#x1e3a;" horiz-adv-x="517" 
d="M106 700h80v-626h307v-74h-387v700zM179 -63h241v-59h-241v59z" />
    <glyph glyph-name="Lslash" unicode="&#x141;" horiz-adv-x="517" 
d="M186 74h307v-74h-387v393l-96 -28v58l96 28v249h80v-225l191 56v-60l-191 -55v-342z" />
    <glyph glyph-name="M" unicode="M" horiz-adv-x="1207" 
d="M887 700c134 0 231 -106 231 -256v-444h-81v427c0 114 -72 195 -175 195c-122 -3 -210 -103 -210 -230l-1 1v-393h-80v427c0 114 -73 195 -175 195c-114 -3 -200 -91 -210 -207v-415h-80v700h80v-131c47 79 131 129 235 131c104 0 185 -64 216 -162
c41 97 133 160 250 162z" />
    <glyph glyph-name="uni1E42" unicode="&#x1e42;" horiz-adv-x="1207" 
d="M887 700c134 0 231 -106 231 -256v-444h-81v427c0 114 -72 195 -175 195c-122 -3 -210 -103 -210 -230l-1 1v-393h-80v427c0 114 -73 195 -175 195c-114 -3 -200 -91 -210 -207v-415h-80v700h80v-131c47 79 131 129 235 131c104 0 185 -64 216 -162
c41 97 133 160 250 162zM611 -56c29 0 51 -22 51 -53c0 -30 -22 -53 -51 -53s-51 23 -51 53c0 31 22 53 51 53z" />
    <glyph glyph-name="uni1E42.ss01" horiz-adv-x="1207" 
d="M887 700c134 0 231 -106 231 -256v-444h-81v427c0 114 -72 195 -175 195c-122 -3 -210 -103 -210 -230l-1 1v-393h-80v427c0 114 -73 195 -175 195c-114 -3 -200 -91 -210 -207v-415h-80v700h80v-131c47 79 131 129 235 131c104 0 185 -64 216 -162
c41 97 133 160 250 162zM611 -56c29 0 51 -22 51 -53c0 -30 -22 -53 -51 -53s-51 23 -51 53c0 31 22 53 51 53z" />
    <glyph glyph-name="N" unicode="N" 
d="M442 700c143 0 246 -105 246 -256v-444h-80v427c0 114 -79 195 -191 195c-127 -3 -220 -92 -231 -208v-414h-80v700h80v-136c49 82 141 134 256 136z" />
    <glyph glyph-name="uni01CA" unicode="&#x1ca;" horiz-adv-x="1261" 
d="M442 700c143 0 246 -105 246 -256v-444h-80v427c0 114 -79 195 -191 195c-127 -3 -220 -92 -231 -208v-414h-80v700h80v-136c49 82 141 134 256 136zM841 700h330v-591c0 -136 -74 -212 -200 -212c-77 0 -144 36 -193 99l40 62c44 -53 99 -82 153 -82
c77 0 120 47 120 135v515h-250v74z" />
    <glyph glyph-name="uni01CA.ss01" horiz-adv-x="1261" 
d="M442 700c143 0 246 -105 246 -256v-444h-80v427c0 114 -79 195 -191 195c-127 -3 -220 -92 -231 -208v-414h-80v700h80v-136c49 82 141 134 256 136zM841 700h330v-591c0 -136 -74 -212 -200 -212c-77 0 -144 36 -193 99l40 62c44 -53 99 -82 153 -82
c77 0 120 47 120 135v515h-250v74z" />
    <glyph glyph-name="Nacute" unicode="&#x143;" 
d="M565 888l-124 -99h-75l120 135zM442 700c143 0 246 -105 246 -256v-444h-80v427c0 114 -79 195 -191 195c-127 -3 -220 -92 -231 -208v-414h-80v700h80v-136c49 82 141 134 256 136z" />
    <glyph glyph-name="Ncaron" unicode="&#x147;" 
d="M458 784h-82l-104 135h73l72 -94l72 94h73zM442 700c143 0 246 -105 246 -256v-444h-80v427c0 114 -79 195 -191 195c-127 -3 -220 -92 -231 -208v-414h-80v700h80v-136c49 82 141 134 256 136z" />
    <glyph glyph-name="Ncommaaccent" unicode="&#x145;" 
d="M442 700c143 0 246 -105 246 -256v-444h-80v427c0 114 -79 195 -191 195c-127 -3 -220 -92 -231 -208v-414h-80v700h80v-136c49 82 141 134 256 136zM393 -55c25 0 47 -19 47 -50c0 -15 -5 -28 -14 -42l-47 -71h-44l33 72c-16 9 -23 25 -23 42c0 28 21 49 48 49z" />
    <glyph glyph-name="uni1E44" unicode="&#x1e44;" 
d="M419 798c-29 0 -51 23 -51 53c0 31 22 53 51 53s51 -22 51 -53c0 -30 -22 -53 -51 -53zM442 700c143 0 246 -105 246 -256v-444h-80v427c0 114 -79 195 -191 195c-127 -3 -220 -92 -231 -208v-414h-80v700h80v-136c49 82 141 134 256 136z" />
    <glyph glyph-name="uni1E44.ss01" 
d="M419 798c-29 0 -51 23 -51 53c0 31 22 53 51 53s51 -22 51 -53c0 -30 -22 -53 -51 -53zM442 700c143 0 246 -105 246 -256v-444h-80v427c0 114 -79 195 -191 195c-127 -3 -220 -92 -231 -208v-414h-80v700h80v-136c49 82 141 134 256 136z" />
    <glyph glyph-name="uni1E46" unicode="&#x1e46;" 
d="M442 700c143 0 246 -105 246 -256v-444h-80v427c0 114 -79 195 -191 195c-127 -3 -220 -92 -231 -208v-414h-80v700h80v-136c49 82 141 134 256 136zM393 -56c29 0 51 -22 51 -53c0 -30 -22 -53 -51 -53s-51 23 -51 53c0 31 22 53 51 53z" />
    <glyph glyph-name="uni1E46.ss01" 
d="M442 700c143 0 246 -105 246 -256v-444h-80v427c0 114 -79 195 -191 195c-127 -3 -220 -92 -231 -208v-414h-80v700h80v-136c49 82 141 134 256 136zM393 -56c29 0 51 -22 51 -53c0 -30 -22 -53 -51 -53s-51 23 -51 53c0 31 22 53 51 53z" />
    <glyph glyph-name="Eng" unicode="&#x14a;" horiz-adv-x="779" 
d="M442 700c143 0 246 -105 246 -256v-444c0 -125 -76 -201 -200 -201c-75 0 -140 31 -187 86l39 62c43 -45 97 -68 147 -68c75 0 121 47 121 135v413c0 114 -79 195 -191 195c-127 -3 -220 -92 -231 -208v-414h-80v700h80v-136c49 82 141 134 256 136z" />
    <glyph glyph-name="uni01CB" unicode="&#x1cb;" horiz-adv-x="1045" 
d="M909 624c-30 0 -53 23 -53 53c0 31 23 54 53 54c31 0 53 -23 53 -54c0 -30 -22 -53 -53 -53zM442 700c143 0 246 -105 246 -256v-444h-80v427c0 114 -79 195 -191 195c-127 -3 -220 -92 -231 -208v-414h-80v700h80v-136c49 82 141 134 256 136zM870 -30v556h78v-546
c0 -121 -69 -177 -151 -177c-38 0 -77 13 -107 36l28 62c23 -17 50 -27 76 -27c46 -1 76 30 76 96z" />
    <glyph glyph-name="uni01CB.ss01" horiz-adv-x="1045" 
d="M909 624c-30 0 -53 23 -53 53c0 31 23 54 53 54c31 0 53 -23 53 -54c0 -30 -22 -53 -53 -53zM442 700c143 0 246 -105 246 -256v-444h-80v427c0 114 -79 195 -191 195c-127 -3 -220 -92 -231 -208v-414h-80v700h80v-136c49 82 141 134 256 136zM870 -30v556h78v-546
c0 -121 -69 -177 -151 -177c-38 0 -77 13 -107 36l28 62c23 -17 50 -27 76 -27c46 -1 76 30 76 96z" />
    <glyph glyph-name="uni1E48" unicode="&#x1e48;" 
d="M442 700c143 0 246 -105 246 -256v-444h-80v427c0 114 -79 195 -191 195c-127 -3 -220 -92 -231 -208v-414h-80v700h80v-136c49 82 141 134 256 136zM272 -122v59h241v-59h-241z" />
    <glyph glyph-name="uni1E48.ss01" 
d="M442 700c143 0 246 -105 246 -256v-444h-80v427c0 114 -79 195 -191 195c-127 -3 -220 -92 -231 -208v-414h-80v700h80v-136c49 82 141 134 256 136zM272 -122v59h241v-59h-241z" />
    <glyph glyph-name="Ntilde" unicode="&#xd1;" 
d="M365 859c-28 0 -43 -19 -43 -53h-52c0 73 29 112 83 112c55 0 82 -61 121 -61c28 0 43 19 43 53h52c0 -73 -29 -112 -83 -112c-58 0 -81 61 -121 61zM442 700c143 0 246 -105 246 -256v-444h-80v427c0 114 -79 195 -191 195c-127 -3 -220 -92 -231 -208v-414h-80v700h80
v-136c49 82 141 134 256 136z" />
    <glyph glyph-name="O" unicode="O" horiz-adv-x="813" 
d="M407 702c204 0 366 -155 366 -352s-162 -353 -366 -353c-205 0 -367 156 -367 353s162 352 367 352zM407 628c-156 0 -286 -123 -286 -278s130 -280 286 -280s284 125 284 280s-128 278 -284 278z" />
    <glyph glyph-name="Oacute" unicode="&#xd3;" horiz-adv-x="813" 
d="M471 924l79 -36l-124 -99h-75zM407 702c204 0 366 -155 366 -352s-162 -353 -366 -353c-205 0 -367 156 -367 353s162 352 367 352zM407 628c-156 0 -286 -123 -286 -278s130 -280 286 -280s284 125 284 280s-128 278 -284 278z" />
    <glyph glyph-name="Obreve" unicode="&#x14e;" horiz-adv-x="813" 
d="M332 914c2 -42 32 -73 72 -73s70 31 72 73h55c-3 -76 -56 -129 -127 -129s-124 53 -127 129h55zM407 702c204 0 366 -155 366 -352s-162 -353 -366 -353c-205 0 -367 156 -367 353s162 352 367 352zM407 628c-156 0 -286 -123 -286 -278s130 -280 286 -280
s284 125 284 280s-128 278 -284 278z" />
    <glyph glyph-name="Ocircumflex" unicode="&#xd4;" horiz-adv-x="813" 
d="M366 919h76l102 -129h-68l-72 91l-72 -91h-68zM407 702c204 0 366 -155 366 -352s-162 -353 -366 -353c-205 0 -367 156 -367 353s162 352 367 352zM407 628c-156 0 -286 -123 -286 -278s130 -280 286 -280s284 125 284 280s-128 278 -284 278z" />
    <glyph glyph-name="uni1ED0" unicode="&#x1ed0;" horiz-adv-x="813" 
d="M621 1026l69 -36l-125 -99h-64zM366 921h76l102 -129h-68l-72 91l-72 -91h-68zM407 702c204 0 366 -155 366 -352s-162 -353 -366 -353c-205 0 -367 156 -367 353s162 352 367 352zM407 628c-156 0 -286 -123 -286 -278s130 -280 286 -280s284 125 284 280
s-128 278 -284 278z" />
    <glyph glyph-name="uni1ED8" unicode="&#x1ed8;" horiz-adv-x="813" 
d="M442 921l102 -129h-68l-72 91l-72 -91h-68l102 129h76zM407 702c204 0 366 -155 366 -352s-162 -353 -366 -353c-205 0 -367 156 -367 353s162 352 367 352zM407 628c-156 0 -286 -123 -286 -278s130 -280 286 -280s284 125 284 280s-128 278 -284 278zM407 -55
c29 0 51 -23 51 -53s-22 -54 -51 -54s-51 24 -51 54s22 53 51 53z" />
    <glyph glyph-name="uni1ED2" unicode="&#x1ed2;" horiz-adv-x="813" 
d="M505 1012l120 -135h-64l-124 99zM366 921h76l102 -129h-68l-72 91l-72 -91h-68zM407 702c204 0 366 -155 366 -352s-162 -353 -366 -353c-205 0 -367 156 -367 353s162 352 367 352zM407 628c-156 0 -286 -123 -286 -278s130 -280 286 -280s284 125 284 280
s-128 278 -284 278z" />
    <glyph glyph-name="uni1ED4" unicode="&#x1ed4;" horiz-adv-x="813" 
d="M426 987c7 45 43 73 92 73c52 0 86 -35 86 -82c0 -39 -20 -66 -55 -93l-41 14c33 26 53 48 53 77c0 22 -15 40 -44 40s-47 -17 -50 -44zM366 921h76l102 -129h-68l-72 91l-72 -91h-68zM407 702c204 0 366 -155 366 -352s-162 -353 -366 -353c-205 0 -367 156 -367 353
s162 352 367 352zM407 628c-156 0 -286 -123 -286 -278s130 -280 286 -280s284 125 284 280s-128 278 -284 278z" />
    <glyph glyph-name="uni1ED6" unicode="&#x1ed6;" horiz-adv-x="813" 
d="M551 1046c0 -73 -29 -111 -83 -111c-59 0 -82 60 -122 60c-27 0 -42 -19 -42 -53h-53c0 73 29 112 83 112c56 0 82 -61 122 -61c27 0 42 19 42 53h53zM366 921h76l102 -129h-68l-72 91l-72 -91h-68zM407 702c204 0 366 -155 366 -352s-162 -353 -366 -353
c-205 0 -367 156 -367 353s162 352 367 352zM407 628c-156 0 -286 -123 -286 -278s130 -280 286 -280s284 125 284 280s-128 278 -284 278z" />
    <glyph glyph-name="uni020C" unicode="&#x20c;" horiz-adv-x="813" 
d="M281 928l91 -139h-65l-93 106zM428 928l91 -139h-65l-93 106zM407 702c204 0 366 -155 366 -352s-162 -353 -366 -353c-205 0 -367 156 -367 353s162 352 367 352zM407 628c-156 0 -286 -123 -286 -278s130 -280 286 -280s284 125 284 280s-128 278 -284 278z" />
    <glyph glyph-name="Odieresis" unicode="&#xd6;" horiz-adv-x="813" 
d="M321 901c27 0 48 -21 48 -50c0 -27 -21 -49 -48 -49s-47 22 -47 49c0 29 20 50 47 50zM488 901c26 0 47 -21 47 -50c0 -27 -21 -49 -47 -49c-27 0 -48 22 -48 49c0 29 21 50 48 50zM407 702c204 0 366 -155 366 -352s-162 -353 -366 -353c-205 0 -367 156 -367 353
s162 352 367 352zM407 628c-156 0 -286 -123 -286 -278s130 -280 286 -280s284 125 284 280s-128 278 -284 278z" />
    <glyph glyph-name="uni022A" unicode="&#x22a;" horiz-adv-x="813" 
d="M283 1025h241v-59h-241v59zM320 901c27 0 48 -21 48 -50c0 -27 -21 -49 -48 -49s-47 22 -47 49c0 29 20 50 47 50zM487 901c26 0 47 -21 47 -50c0 -27 -21 -49 -47 -49c-27 0 -48 22 -48 49c0 29 21 50 48 50zM407 702c204 0 366 -155 366 -352s-162 -353 -366 -353
c-205 0 -367 156 -367 353s162 352 367 352zM407 628c-156 0 -286 -123 -286 -278s130 -280 286 -280s284 125 284 280s-128 278 -284 278z" />
    <glyph glyph-name="uni0230" unicode="&#x230;" horiz-adv-x="813" 
d="M283 1002h241v-59h-241v59zM404 904c29 0 51 -22 51 -53c0 -30 -22 -53 -51 -53s-51 23 -51 53c0 31 22 53 51 53zM407 702c204 0 366 -155 366 -352s-162 -353 -366 -353c-205 0 -367 156 -367 353s162 352 367 352zM407 628c-156 0 -286 -123 -286 -278
s130 -280 286 -280s284 125 284 280s-128 278 -284 278z" />
    <glyph glyph-name="uni1ECC" unicode="&#x1ecc;" horiz-adv-x="813" 
d="M407 702c204 0 366 -155 366 -352s-162 -353 -366 -353c-205 0 -367 156 -367 353s162 352 367 352zM407 628c-156 0 -286 -123 -286 -278s130 -280 286 -280s284 125 284 280s-128 278 -284 278zM407 -55c29 0 51 -23 51 -53s-22 -54 -51 -54s-51 24 -51 54s22 53 51 53
z" />
    <glyph glyph-name="Ograve" unicode="&#xd2;" horiz-adv-x="813" 
d="M334 924l120 -135h-75l-125 99zM407 702c204 0 366 -155 366 -352s-162 -353 -366 -353c-205 0 -367 156 -367 353s162 352 367 352zM407 628c-156 0 -286 -123 -286 -278s130 -280 286 -280s284 125 284 280s-128 278 -284 278z" />
    <glyph glyph-name="uni1ECE" unicode="&#x1ece;" horiz-adv-x="813" 
d="M311 856c7 45 43 73 91 73c53 0 87 -35 87 -82c0 -39 -20 -66 -55 -93l-41 14c33 26 53 48 53 77c0 22 -15 40 -44 40s-47 -17 -50 -44zM407 702c204 0 366 -155 366 -352s-162 -353 -366 -353c-205 0 -367 156 -367 353s162 352 367 352zM407 628
c-156 0 -286 -123 -286 -278s130 -280 286 -280s284 125 284 280s-128 278 -284 278z" />
    <glyph glyph-name="Ohorn" unicode="&#x1a0;" horiz-adv-x="813" 
d="M580 661c116 -59 193 -175 193 -311c0 -197 -162 -353 -366 -353c-205 0 -367 156 -367 353s162 352 367 352c32 0 63 -4 92 -11c52 7 86 45 86 98h62c-1 -55 -26 -101 -67 -128zM407 70c156 0 284 125 284 280s-128 278 -284 278s-286 -123 -286 -278s130 -280 286 -280
z" />
    <glyph glyph-name="uni1EDA" unicode="&#x1eda;" horiz-adv-x="813" 
d="M556 888l-124 -99h-75l120 135zM580 661c116 -59 193 -175 193 -311c0 -197 -162 -353 -366 -353c-205 0 -367 156 -367 353s162 352 367 352c32 0 63 -4 92 -11c52 7 86 45 86 98h62c-1 -55 -26 -101 -67 -128zM407 70c156 0 284 125 284 280s-128 278 -284 278
s-286 -123 -286 -278s130 -280 286 -280z" />
    <glyph glyph-name="uni1EE2" unicode="&#x1ee2;" horiz-adv-x="813" 
d="M580 661c116 -59 193 -175 193 -311c0 -197 -162 -353 -366 -353c-205 0 -367 156 -367 353s162 352 367 352c32 0 63 -4 92 -11c52 7 86 45 86 98h62c-1 -55 -26 -101 -67 -128zM407 70c156 0 284 125 284 280s-128 278 -284 278s-286 -123 -286 -278s130 -280 286 -280
zM407 -55c29 0 51 -23 51 -53s-22 -54 -51 -54s-51 24 -51 54s22 53 51 53z" />
    <glyph glyph-name="uni1EDC" unicode="&#x1edc;" horiz-adv-x="813" 
d="M451 789h-75l-125 99l80 36zM580 661c116 -59 193 -175 193 -311c0 -197 -162 -353 -366 -353c-205 0 -367 156 -367 353s162 352 367 352c32 0 63 -4 92 -11c52 7 86 45 86 98h62c-1 -55 -26 -101 -67 -128zM407 70c156 0 284 125 284 280s-128 278 -284 278
s-286 -123 -286 -278s130 -280 286 -280z" />
    <glyph glyph-name="uni1EDE" unicode="&#x1ede;" horiz-adv-x="813" 
d="M402 885c-29 0 -47 -17 -50 -44l-41 15c7 45 43 73 91 73c53 0 87 -35 87 -82c0 -39 -20 -66 -55 -93l-41 14c33 26 53 48 53 77c0 22 -15 40 -44 40zM580 661c116 -59 193 -175 193 -311c0 -197 -162 -353 -366 -353c-205 0 -367 156 -367 353s162 352 367 352
c32 0 63 -4 92 -11c52 7 86 45 86 98h62c-1 -55 -26 -101 -67 -128zM407 70c156 0 284 125 284 280s-128 278 -284 278s-286 -123 -286 -278s130 -280 286 -280z" />
    <glyph glyph-name="uni1EE0" unicode="&#x1ee0;" horiz-adv-x="813" 
d="M350 859c-28 0 -43 -19 -43 -53h-52c0 73 29 112 83 112c55 0 82 -61 121 -61c28 0 43 19 43 53h52c0 -73 -29 -112 -83 -112c-58 0 -81 61 -121 61zM580 661c116 -59 193 -175 193 -311c0 -197 -162 -353 -366 -353c-205 0 -367 156 -367 353s162 352 367 352
c32 0 63 -4 92 -11c52 7 86 45 86 98h62c-1 -55 -26 -101 -67 -128zM407 70c156 0 284 125 284 280s-128 278 -284 278s-286 -123 -286 -278s130 -280 286 -280z" />
    <glyph glyph-name="Ohungarumlaut" unicode="&#x150;" horiz-adv-x="813" 
d="M367 926l66 -33l-92 -106h-65zM514 926l66 -33l-92 -106h-65zM407 702c204 0 366 -155 366 -352s-162 -353 -366 -353c-205 0 -367 156 -367 353s162 352 367 352zM407 628c-156 0 -286 -123 -286 -278s130 -280 286 -280s284 125 284 280s-128 278 -284 278z" />
    <glyph glyph-name="uni020E" unicode="&#x20e;" horiz-adv-x="813" 
d="M332 786h-55c3 76 56 129 127 129s124 -53 127 -129h-55c-2 42 -32 73 -72 73s-70 -31 -72 -73zM407 702c204 0 366 -155 366 -352s-162 -353 -366 -353c-205 0 -367 156 -367 353s162 352 367 352zM407 628c-156 0 -286 -123 -286 -278s130 -280 286 -280
s284 125 284 280s-128 278 -284 278z" />
    <glyph glyph-name="Omacron" unicode="&#x14c;" horiz-adv-x="813" 
d="M284 880h241v-59h-241v59zM407 702c204 0 366 -155 366 -352s-162 -353 -366 -353c-205 0 -367 156 -367 353s162 352 367 352zM407 628c-156 0 -286 -123 -286 -278s130 -280 286 -280s284 125 284 280s-128 278 -284 278z" />
    <glyph glyph-name="uni1E52" unicode="&#x1e52;" horiz-adv-x="813" 
d="M477 1066l79 -36l-124 -99h-75zM283 860h241v-59h-241v59zM407 702c204 0 366 -155 366 -352s-162 -353 -366 -353c-205 0 -367 156 -367 353s162 352 367 352zM407 628c-156 0 -286 -123 -286 -278s130 -280 286 -280s284 125 284 280s-128 278 -284 278z" />
    <glyph glyph-name="uni1E50" unicode="&#x1e50;" horiz-adv-x="813" 
d="M331 1066l120 -135h-75l-125 99zM283 860h241v-59h-241v59zM407 702c204 0 366 -155 366 -352s-162 -353 -366 -353c-205 0 -367 156 -367 353s162 352 367 352zM407 628c-156 0 -286 -123 -286 -278s130 -280 286 -280s284 125 284 280s-128 278 -284 278z" />
    <glyph glyph-name="uni01EA" unicode="&#x1ea;" horiz-adv-x="813" 
d="M773 350c0 -192 -154 -345 -350 -353c-38 -51 -51 -85 -51 -111c0 -24 15 -38 35 -38s38 13 54 33l26 -30c-22 -30 -54 -50 -87 -50c-38 0 -73 24 -73 74c0 35 17 73 53 123c-192 13 -340 164 -340 352c0 197 162 352 367 352c204 0 366 -155 366 -352zM121 350
c0 -155 130 -280 286 -280s284 125 284 280s-128 278 -284 278s-286 -123 -286 -278z" />
    <glyph glyph-name="Oslash" unicode="&#xd8;" horiz-adv-x="813" 
d="M628 632c88 -64 145 -165 145 -282c0 -197 -162 -353 -366 -353c-69 0 -133 18 -187 48l-70 -100h-50l85 123c-88 64 -145 166 -145 282c0 197 162 352 367 352c68 0 131 -17 185 -47l70 100h51zM121 350c0 -89 43 -168 108 -219l319 460c-41 24 -90 37 -141 37
c-156 0 -286 -123 -286 -278zM407 70c156 0 284 125 284 280c0 89 -42 168 -108 218l-320 -460c43 -24 92 -38 144 -38z" />
    <glyph glyph-name="Oslashacute" unicode="&#x1fe;" horiz-adv-x="813" 
d="M559 888l-124 -99h-75l120 135zM628 632c88 -64 145 -165 145 -282c0 -197 -162 -353 -366 -353c-69 0 -133 18 -187 48l-70 -100h-50l85 123c-88 64 -145 166 -145 282c0 197 162 352 367 352c68 0 131 -17 185 -47l70 100h51zM121 350c0 -89 43 -168 108 -219l319 460
c-41 24 -90 37 -141 37c-156 0 -286 -123 -286 -278zM407 70c156 0 284 125 284 280c0 89 -42 168 -108 218l-320 -460c43 -24 92 -38 144 -38z" />
    <glyph glyph-name="Otilde" unicode="&#xd5;" horiz-adv-x="813" 
d="M554 910c0 -73 -29 -112 -83 -112c-58 0 -81 61 -121 61c-28 0 -43 -19 -43 -53h-52c0 73 29 112 83 112c55 0 82 -61 121 -61c28 0 43 19 43 53h52zM407 702c204 0 366 -155 366 -352s-162 -353 -366 -353c-205 0 -367 156 -367 353s162 352 367 352zM407 628
c-156 0 -286 -123 -286 -278s130 -280 286 -280s284 125 284 280s-128 278 -284 278z" />
    <glyph glyph-name="uni1E4C" unicode="&#x1e4c;" horiz-adv-x="813" 
d="M477 1101l79 -36l-124 -99h-75zM554 910c0 -73 -29 -112 -83 -112c-58 0 -81 61 -121 61c-28 0 -43 -19 -43 -53h-52c0 73 29 112 83 112c55 0 82 -61 121 -61c28 0 43 19 43 53h52zM407 702c204 0 366 -155 366 -352s-162 -353 -366 -353c-205 0 -367 156 -367 353
s162 352 367 352zM407 628c-156 0 -286 -123 -286 -278s130 -280 286 -280s284 125 284 280s-128 278 -284 278z" />
    <glyph glyph-name="uni1E4E" unicode="&#x1e4e;" horiz-adv-x="813" 
d="M320 1078c27 0 48 -21 48 -50c0 -27 -21 -49 -48 -49s-47 22 -47 49c0 29 20 50 47 50zM487 1078c26 0 47 -21 47 -50c0 -27 -21 -49 -47 -49c-27 0 -48 22 -48 49c0 29 21 50 48 50zM554 910c0 -73 -29 -112 -83 -112c-58 0 -81 61 -121 61c-28 0 -43 -19 -43 -53h-52
c0 73 29 112 83 112c55 0 82 -61 121 -61c28 0 43 19 43 53h52zM407 702c204 0 366 -155 366 -352s-162 -353 -366 -353c-205 0 -367 156 -367 353s162 352 367 352zM407 628c-156 0 -286 -123 -286 -278s130 -280 286 -280s284 125 284 280s-128 278 -284 278z" />
    <glyph glyph-name="uni022C" unicode="&#x22c;" horiz-adv-x="813" 
d="M283 1037h241v-59h-241v59zM554 910c0 -73 -29 -112 -83 -112c-58 0 -81 61 -121 61c-28 0 -43 -19 -43 -53h-52c0 73 29 112 83 112c55 0 82 -61 121 -61c28 0 43 19 43 53h52zM407 702c204 0 366 -155 366 -352s-162 -353 -366 -353c-205 0 -367 156 -367 353
s162 352 367 352zM407 628c-156 0 -286 -123 -286 -278s130 -280 286 -280s284 125 284 280s-128 278 -284 278z" />
    <glyph glyph-name="OE" unicode="&#x152;" horiz-adv-x="1094" 
d="M628 74h409v-74h-631c-204 0 -366 154 -366 350c0 195 162 350 366 350h618v-74h-396v-235h354v-73h-354v-244zM407 73l142 -1v554h-142c-159 0 -286 -121 -286 -277c0 -155 127 -276 286 -276z" />
    <glyph glyph-name="P" unicode="P" horiz-adv-x="669" 
d="M369 700c173 0 273 -86 273 -235c0 -154 -100 -243 -273 -243h-183v-222h-80v700h263zM366 296c126 0 199 57 199 167c0 107 -73 163 -199 163h-180v-330h180z" />
    <glyph glyph-name="Thorn" unicode="&#xde;" horiz-adv-x="672" 
d="M348 596c194 0 297 -80 297 -229c0 -154 -103 -237 -297 -237h-162v-130h-80v700h80v-104h162zM345 198c146 0 218 56 218 167c0 107 -72 163 -218 163h-159v-330h159z" />
    <glyph glyph-name="Q" unicode="Q" horiz-adv-x="813" 
d="M773 350c0 -187 -146 -337 -335 -352v-127h-70v128c-186 18 -328 167 -328 351c0 197 162 352 367 352c204 0 366 -155 366 -352zM438 72c142 15 253 133 253 278c0 155 -128 278 -284 278s-286 -123 -286 -278c0 -142 109 -259 247 -277v179h70v-180z" />
    <glyph glyph-name="R" unicode="R" horiz-adv-x="723" 
d="M655 0h-91l-147 224c-14 -1 -29 -2 -45 -2h-186v-222h-80v700h266c175 0 276 -86 276 -235c0 -115 -57 -194 -158 -226zM186 296h186c127 0 199 57 199 167c0 107 -72 163 -199 163h-186v-330z" />
    <glyph glyph-name="Racute" unicode="&#x154;" horiz-adv-x="723" 
d="M496 888l-124 -99h-75l120 135zM655 0h-91l-147 224c-14 -1 -29 -2 -45 -2h-186v-222h-80v700h266c175 0 276 -86 276 -235c0 -115 -57 -194 -158 -226zM186 296h186c127 0 199 57 199 167c0 107 -72 163 -199 163h-186v-330z" />
    <glyph glyph-name="Rcaron" unicode="&#x158;" horiz-adv-x="723" 
d="M389 784h-82l-104 135h73l72 -94l72 94h73zM655 0h-91l-147 224c-14 -1 -29 -2 -45 -2h-186v-222h-80v700h266c175 0 276 -86 276 -235c0 -115 -57 -194 -158 -226zM186 296h186c127 0 199 57 199 167c0 107 -72 163 -199 163h-186v-330z" />
    <glyph glyph-name="Rcommaaccent" unicode="&#x156;" horiz-adv-x="723" 
d="M655 0h-91l-147 224c-14 -1 -29 -2 -45 -2h-186v-222h-80v700h266c175 0 276 -86 276 -235c0 -115 -57 -194 -158 -226zM186 296h186c127 0 199 57 199 167c0 107 -72 163 -199 163h-186v-330zM360 -55c25 0 47 -19 47 -50c0 -15 -5 -28 -14 -42l-47 -71h-44l33 72
c-16 9 -23 25 -23 42c0 28 21 49 48 49z" />
    <glyph glyph-name="uni0210" unicode="&#x210;" horiz-adv-x="723" 
d="M318 789h-65l-93 106l67 33zM465 789h-65l-93 106l67 33zM655 0h-91l-147 224c-14 -1 -29 -2 -45 -2h-186v-222h-80v700h266c175 0 276 -86 276 -235c0 -115 -57 -194 -158 -226zM186 296h186c127 0 199 57 199 167c0 107 -72 163 -199 163h-186v-330z" />
    <glyph glyph-name="uni1E5A" unicode="&#x1e5a;" horiz-adv-x="723" 
d="M655 0h-91l-147 224c-14 -1 -29 -2 -45 -2h-186v-222h-80v700h266c175 0 276 -86 276 -235c0 -115 -57 -194 -158 -226zM186 296h186c127 0 199 57 199 167c0 107 -72 163 -199 163h-186v-330zM360 -56c29 0 51 -22 51 -53c0 -30 -22 -53 -51 -53s-51 23 -51 53
c0 31 22 53 51 53z" />
    <glyph glyph-name="uni0212" unicode="&#x212;" horiz-adv-x="723" 
d="M350 859c-40 0 -70 -31 -72 -73h-55c3 76 56 129 127 129s124 -53 127 -129h-55c-2 42 -32 73 -72 73zM655 0h-91l-147 224c-14 -1 -29 -2 -45 -2h-186v-222h-80v700h266c175 0 276 -86 276 -235c0 -115 -57 -194 -158 -226zM186 296h186c127 0 199 57 199 167
c0 107 -72 163 -199 163h-186v-330z" />
    <glyph glyph-name="uni1E5E" unicode="&#x1e5e;" horiz-adv-x="723" 
d="M490 239l165 -239h-91l-147 224c-14 -1 -29 -2 -45 -2h-186v-222h-80v700h266c175 0 276 -86 276 -235c0 -115 -57 -194 -158 -226zM186 296h186c127 0 199 57 199 167c0 107 -72 163 -199 163h-186v-330zM239 -122v59h241v-59h-241z" />
    <glyph glyph-name="S" unicode="S" horiz-adv-x="611" 
d="M502 567c-63 41 -137 58 -193 58c-90 0 -149 -36 -149 -96c0 -182 394 -87 393 -341c0 -116 -103 -191 -253 -191c-102 0 -202 44 -268 107l36 69c65 -62 154 -98 233 -98c101 0 164 41 164 109c1 187 -393 88 -393 339c0 110 97 180 242 180c81 0 164 -26 222 -65z" />
    <glyph glyph-name="Sacute" unicode="&#x15a;" horiz-adv-x="611" 
d="M374 924l79 -36l-124 -99h-75zM502 567c-63 41 -137 58 -193 58c-90 0 -149 -36 -149 -96c0 -182 394 -87 393 -341c0 -116 -103 -191 -253 -191c-102 0 -202 44 -268 107l36 69c65 -62 154 -98 233 -98c101 0 164 41 164 109c1 187 -393 88 -393 339
c0 110 97 180 242 180c81 0 164 -26 222 -65z" />
    <glyph glyph-name="uni1E64" unicode="&#x1e64;" horiz-adv-x="611" 
d="M307 1072c29 0 51 -22 51 -53c0 -30 -22 -53 -51 -53s-51 23 -51 53c0 31 22 53 51 53zM380 924l79 -36l-124 -99h-75zM502 567c-63 41 -137 58 -193 58c-90 0 -149 -36 -149 -96c0 -182 394 -87 393 -341c0 -116 -103 -191 -253 -191c-102 0 -202 44 -268 107l36 69
c65 -62 154 -98 233 -98c101 0 164 41 164 109c1 187 -393 88 -393 339c0 110 97 180 242 180c81 0 164 -26 222 -65z" />
    <glyph glyph-name="Scaron" unicode="&#x160;" horiz-adv-x="611" 
d="M160 919h73l72 -94l72 94h73l-104 -135h-82zM502 567c-63 41 -137 58 -193 58c-90 0 -149 -36 -149 -96c0 -182 394 -87 393 -341c0 -116 -103 -191 -253 -191c-102 0 -202 44 -268 107l36 69c65 -62 154 -98 233 -98c101 0 164 41 164 109c1 187 -393 88 -393 339
c0 110 97 180 242 180c81 0 164 -26 222 -65z" />
    <glyph glyph-name="uni1E66" unicode="&#x1e66;" horiz-adv-x="611" 
d="M307 1077c29 0 51 -22 51 -53c0 -30 -22 -53 -51 -53s-51 23 -51 53c0 31 22 53 51 53zM162 921h73l72 -94l72 94h73l-104 -135h-82zM502 567c-63 41 -137 58 -193 58c-90 0 -149 -36 -149 -96c0 -182 394 -87 393 -341c0 -116 -103 -191 -253 -191
c-102 0 -202 44 -268 107l36 69c65 -62 154 -98 233 -98c101 0 164 41 164 109c1 187 -393 88 -393 339c0 110 97 180 242 180c81 0 164 -26 222 -65z" />
    <glyph glyph-name="Scedilla" unicode="&#x15e;" horiz-adv-x="611" 
d="M160 529c0 -182 394 -87 393 -341c0 -103 -81 -173 -204 -188l-22 -50c41 -5 71 -32 71 -75c1 -54 -41 -90 -97 -90c-30 0 -61 10 -81 25l17 41c16 -12 39 -20 59 -20c33 0 54 23 53 48c0 23 -18 43 -50 43c-10 0 -24 -2 -33 -3l33 78c-101 0 -201 44 -267 107l36 69
c65 -62 154 -98 233 -98c101 0 164 41 164 109c1 187 -393 88 -393 339c0 110 97 180 242 180c81 0 164 -26 222 -65l-34 -71c-63 41 -137 58 -193 58c-90 0 -149 -36 -149 -96z" />
    <glyph glyph-name="Scircumflex" unicode="&#x15c;" horiz-adv-x="611" 
d="M269 919h76l102 -129h-68l-72 91l-72 -91h-68zM502 567c-63 41 -137 58 -193 58c-90 0 -149 -36 -149 -96c0 -182 394 -87 393 -341c0 -116 -103 -191 -253 -191c-102 0 -202 44 -268 107l36 69c65 -62 154 -98 233 -98c101 0 164 41 164 109c1 187 -393 88 -393 339
c0 110 97 180 242 180c81 0 164 -26 222 -65z" />
    <glyph glyph-name="Scommaaccent" unicode="&#x218;" horiz-adv-x="611" 
d="M160 529c0 -182 394 -87 393 -341c0 -116 -103 -191 -253 -191c-102 0 -202 44 -268 107l36 69c65 -62 154 -98 233 -98c101 0 164 41 164 109c1 187 -393 88 -393 339c0 110 97 180 242 180c81 0 164 -26 222 -65l-34 -71c-63 41 -137 58 -193 58
c-90 0 -149 -36 -149 -96zM309 -55c25 0 47 -19 47 -50c0 -15 -5 -28 -14 -42l-47 -71h-44l33 72c-16 9 -23 25 -23 42c0 28 21 49 48 49z" />
    <glyph glyph-name="uni1E60" unicode="&#x1e60;" horiz-adv-x="611" 
d="M307 904c29 0 51 -22 51 -53c0 -30 -22 -53 -51 -53s-51 23 -51 53c0 31 22 53 51 53zM502 567c-63 41 -137 58 -193 58c-90 0 -149 -36 -149 -96c0 -182 394 -87 393 -341c0 -116 -103 -191 -253 -191c-102 0 -202 44 -268 107l36 69c65 -62 154 -98 233 -98
c101 0 164 41 164 109c1 187 -393 88 -393 339c0 110 97 180 242 180c81 0 164 -26 222 -65z" />
    <glyph glyph-name="uni1E62" unicode="&#x1e62;" horiz-adv-x="611" 
d="M502 567c-63 41 -137 58 -193 58c-90 0 -149 -36 -149 -96c0 -182 394 -87 393 -341c0 -116 -103 -191 -253 -191c-102 0 -202 44 -268 107l36 69c65 -62 154 -98 233 -98c101 0 164 41 164 109c1 187 -393 88 -393 339c0 110 97 180 242 180c81 0 164 -26 222 -65z
M309 -56c29 0 51 -22 51 -53c0 -30 -22 -53 -51 -53s-51 23 -51 53c0 31 22 53 51 53z" />
    <glyph glyph-name="uni1E68" unicode="&#x1e68;" horiz-adv-x="611" 
d="M307 904c29 0 51 -22 51 -53c0 -30 -22 -53 -51 -53s-51 23 -51 53c0 31 22 53 51 53zM502 567c-63 41 -137 58 -193 58c-90 0 -149 -36 -149 -96c0 -182 394 -87 393 -341c0 -116 -103 -191 -253 -191c-102 0 -202 44 -268 107l36 69c65 -62 154 -98 233 -98
c101 0 164 41 164 109c1 187 -393 88 -393 339c0 110 97 180 242 180c81 0 164 -26 222 -65zM309 -56c29 0 51 -22 51 -53c0 -30 -22 -53 -51 -53s-51 23 -51 53c0 31 22 53 51 53z" />
    <glyph glyph-name="uni1E9E" unicode="&#x1e9e;" horiz-adv-x="675" 
d="M448 398c120 -18 184 -94 184 -196c0 -124 -91 -202 -240 -202h-83v73h83c98 0 159 50 159 129c0 78 -59 126 -162 126h-30v74l161 187c-39 23 -87 39 -153 39c-123 0 -199 -70 -199 -193v-435h-80v435c0 169 105 267 277 267c102 0 174 -35 222 -72v-70z" />
    <glyph glyph-name="uni018F" unicode="&#x18f;" horiz-adv-x="784" 
d="M391 -3c-205 0 -356 159 -356 373h630c-9 145 -129 258 -273 258c-90 0 -171 -40 -223 -105l-57 56c68 75 160 123 279 123c197 0 353 -155 353 -352s-156 -353 -353 -353zM392 70c136 0 248 95 268 226h-539c20 -131 130 -226 271 -226z" />
    <glyph glyph-name="uni018F.ss01" horiz-adv-x="759" 
d="M366 702c197 0 353 -155 353 -352s-156 -353 -353 -353c-170 0 -288 110 -334 244l581 230c-44 94 -137 157 -246 157c-90 0 -170 -40 -223 -105l-57 56c68 75 161 123 279 123zM367 70c160 0 274 129 274 278c0 18 -2 35 -5 52l-505 -200c42 -70 125 -130 236 -130z" />
    <glyph glyph-name="T" unicode="T" horiz-adv-x="633" 
d="M597 633l-28 -70c-64 33 -138 54 -214 59v-622h-80v623c-75 -6 -151 -27 -214 -60l-28 71c82 44 182 69 281 69c100 0 200 -25 283 -70z" />
    <glyph glyph-name="Tbar" unicode="&#x166;" horiz-adv-x="633" 
d="M569 563c-63 34 -138 54 -214 60v-225h163v-59h-163v-339h-80v339h-162v59h162v225c-75 -6 -151 -27 -214 -60l-28 71c82 44 182 69 281 69c100 0 200 -25 283 -70z" />
    <glyph glyph-name="Tcaron" unicode="&#x164;" horiz-adv-x="633" 
d="M356 784h-82l-104 135h73l72 -94l72 94h73zM597 633l-28 -70c-64 33 -138 54 -214 59v-622h-80v623c-75 -6 -151 -27 -214 -60l-28 71c82 44 182 69 281 69c100 0 200 -25 283 -70z" />
    <glyph glyph-name="uni0162" unicode="&#x162;" horiz-adv-x="633" 
d="M569 563c-64 33 -138 54 -214 59v-614h4l-26 -58c41 -5 71 -32 71 -75c1 -54 -41 -90 -97 -90c-30 0 -61 10 -81 25l17 41c16 -12 39 -20 59 -20c33 0 54 23 53 48c0 23 -18 43 -50 43c-10 0 -24 -2 -33 -3l35 81h-32v623c-75 -6 -151 -27 -214 -60l-28 71
c82 44 182 69 281 69c100 0 200 -25 283 -70z" />
    <glyph glyph-name="uni021A" unicode="&#x21a;" horiz-adv-x="633" 
d="M314 703c100 0 200 -25 283 -70l-28 -70c-64 33 -138 54 -214 59v-622h-80v623c-75 -6 -151 -27 -214 -60l-28 71c82 44 182 69 281 69zM315 -55c25 0 47 -19 47 -50c0 -15 -5 -28 -14 -42l-47 -71h-44l33 72c-16 9 -23 25 -23 42c0 28 21 49 48 49z" />
    <glyph glyph-name="uni1E6C" unicode="&#x1e6c;" horiz-adv-x="633" 
d="M314 703c100 0 200 -25 283 -70l-28 -70c-64 33 -138 54 -214 59v-622h-80v623c-75 -6 -151 -27 -214 -60l-28 71c82 44 182 69 281 69zM315 -56c29 0 51 -22 51 -53c0 -30 -22 -53 -51 -53s-51 23 -51 53c0 31 22 53 51 53z" />
    <glyph glyph-name="uni1E6C.ss01" horiz-adv-x="633" 
d="M314 703c100 0 200 -25 283 -70l-28 -70c-64 33 -138 54 -214 59v-622h-80v623c-75 -6 -151 -27 -214 -60l-28 71c82 44 182 69 281 69zM315 -56c29 0 51 -22 51 -53c0 -30 -22 -53 -51 -53s-51 23 -51 53c0 31 22 53 51 53z" />
    <glyph glyph-name="uni1E6E" unicode="&#x1e6e;" horiz-adv-x="633" 
d="M314 703c100 0 200 -25 283 -70l-28 -70c-64 33 -138 54 -214 59v-622h-80v623c-75 -6 -151 -27 -214 -60l-28 71c82 44 182 69 281 69zM194 -122v59h241v-59h-241z" />
    <glyph glyph-name="uni1E6E.ss01" horiz-adv-x="633" 
d="M314 703c100 0 200 -25 283 -70l-28 -70c-64 33 -138 54 -214 59v-622h-80v623c-75 -6 -151 -27 -214 -60l-28 71c82 44 182 69 281 69zM194 -122v59h241v-59h-241z" />
    <glyph glyph-name="U" unicode="U" 
d="M592 700h80v-700h-80v136c-49 -82 -141 -134 -256 -136c-143 0 -246 105 -246 256v444h80v-427c0 -114 79 -195 191 -195c127 3 220 92 231 208v414z" />
    <glyph glyph-name="Uacute" unicode="&#xda;" 
d="M516 888l-124 -99h-75l120 135zM592 700h80v-700h-80v136c-49 -82 -141 -134 -256 -136c-143 0 -246 105 -246 256v444h80v-427c0 -114 79 -195 191 -195c127 3 220 92 231 208v414z" />
    <glyph glyph-name="Ubreve" unicode="&#x16c;" 
d="M370 785c-71 0 -124 53 -127 129h55c2 -42 32 -73 72 -73s70 31 72 73h55c-3 -76 -56 -129 -127 -129zM592 700h80v-700h-80v136c-49 -82 -141 -134 -256 -136c-143 0 -246 105 -246 256v444h80v-427c0 -114 79 -195 191 -195c127 3 220 92 231 208v414z" />
    <glyph glyph-name="Ucircumflex" unicode="&#xdb;" 
d="M370 881l-72 -91h-68l102 129h76l102 -129h-68zM592 700h80v-700h-80v136c-49 -82 -141 -134 -256 -136c-143 0 -246 105 -246 256v444h80v-427c0 -114 79 -195 191 -195c127 3 220 92 231 208v414z" />
    <glyph glyph-name="uni0214" unicode="&#x214;" 
d="M338 789h-65l-93 106l67 33zM485 789h-65l-93 106l67 33zM592 700h80v-700h-80v136c-49 -82 -141 -134 -256 -136c-143 0 -246 105 -246 256v444h80v-427c0 -114 79 -195 191 -195c127 3 220 92 231 208v414z" />
    <glyph glyph-name="uni0214.ss01" 
d="M338 789h-65l-93 106l67 33zM485 789h-65l-93 106l67 33zM592 700h80v-700h-80v136c-49 -82 -141 -134 -256 -136c-143 0 -246 105 -246 256v444h80v-427c0 -114 79 -195 191 -195c127 3 220 92 231 208v414z" />
    <glyph glyph-name="Udieresis" unicode="&#xdc;" 
d="M287 802c-27 0 -47 22 -47 49c0 29 20 50 47 50s48 -21 48 -50c0 -27 -21 -49 -48 -49zM454 802c-27 0 -48 22 -48 49c0 29 21 50 48 50c26 0 47 -21 47 -50c0 -27 -21 -49 -47 -49zM592 700h80v-700h-80v136c-49 -82 -141 -134 -256 -136c-143 0 -246 105 -246 256v444
h80v-427c0 -114 79 -195 191 -195c127 3 220 92 231 208v414z" />
    <glyph glyph-name="uni1EE4" unicode="&#x1ee4;" 
d="M592 700h80v-700h-80v136c-49 -82 -141 -134 -256 -136c-143 0 -246 105 -246 256v444h80v-427c0 -114 79 -195 191 -195c127 3 220 92 231 208v414zM380 -55c29 0 51 -23 51 -53s-22 -54 -51 -54s-51 24 -51 54s22 53 51 53z" />
    <glyph glyph-name="uni1EE4.ss01" 
d="M592 700h80v-700h-80v136c-49 -82 -141 -134 -256 -136c-143 0 -246 105 -246 256v444h80v-427c0 -114 79 -195 191 -195c127 3 220 92 231 208v414zM380 -55c29 0 51 -23 51 -53s-22 -54 -51 -54s-51 24 -51 54s22 53 51 53z" />
    <glyph glyph-name="Ugrave" unicode="&#xd9;" 
d="M420 789h-75l-125 99l80 36zM592 700h80v-700h-80v136c-49 -82 -141 -134 -256 -136c-143 0 -246 105 -246 256v444h80v-427c0 -114 79 -195 191 -195c127 3 220 92 231 208v414z" />
    <glyph glyph-name="uni1EE6" unicode="&#x1ee6;" 
d="M368 885c-29 0 -47 -17 -50 -44l-41 15c7 45 43 73 91 73c53 0 87 -35 87 -82c0 -39 -20 -66 -55 -93l-41 14c33 26 53 48 53 77c0 22 -15 40 -44 40zM592 700h80v-700h-80v136c-49 -82 -141 -134 -256 -136c-143 0 -246 105 -246 256v444h80v-427
c0 -114 79 -195 191 -195c127 3 220 92 231 208v414z" />
    <glyph glyph-name="uni1EE6.ss01" 
d="M368 885c-29 0 -47 -17 -50 -44l-41 15c7 45 43 73 91 73c53 0 87 -35 87 -82c0 -39 -20 -66 -55 -93l-41 14c33 26 53 48 53 77c0 22 -15 40 -44 40zM592 700h80v-700h-80v136c-49 -82 -141 -134 -256 -136c-143 0 -246 105 -246 256v444h80v-427
c0 -114 79 -195 191 -195c127 3 220 92 231 208v414z" />
    <glyph glyph-name="Uhorn" unicode="&#x1af;" 
d="M762 789c-1 -65 -35 -116 -90 -141v-648h-80v136c-49 -82 -141 -134 -256 -136c-143 0 -246 105 -246 256v444h80v-427c0 -114 79 -195 191 -195c127 3 220 92 231 208v414h54c33 15 54 47 54 89h62z" />
    <glyph glyph-name="Uhorn.ss01" 
d="M762 789c-1 -65 -35 -116 -90 -141v-648h-80v136c-49 -82 -141 -134 -256 -136c-143 0 -246 105 -246 256v444h80v-427c0 -114 79 -195 191 -195c127 3 220 92 231 208v414h54c33 15 54 47 54 89h62z" />
    <glyph glyph-name="uni1EE8" unicode="&#x1ee8;" 
d="M536 888l-124 -99h-75l120 135zM762 789c-1 -65 -35 -116 -90 -141v-648h-80v136c-49 -82 -141 -134 -256 -136c-143 0 -246 105 -246 256v444h80v-427c0 -114 79 -195 191 -195c127 3 220 92 231 208v414h54c33 15 54 47 54 89h62z" />
    <glyph glyph-name="uni1EE8.ss01" 
d="M522 888l-124 -99h-75l120 135zM762 789c-1 -65 -35 -116 -90 -141v-648h-80v136c-49 -82 -141 -134 -256 -136c-143 0 -246 105 -246 256v444h80v-427c0 -114 79 -195 191 -195c127 3 220 92 231 208v414h54c33 15 54 47 54 89h62z" />
    <glyph glyph-name="uni1EF0" unicode="&#x1ef0;" 
d="M762 789c-1 -65 -35 -116 -90 -141v-648h-80v136c-49 -82 -141 -134 -256 -136c-143 0 -246 105 -246 256v444h80v-427c0 -114 79 -195 191 -195c127 3 220 92 231 208v414h54c33 15 54 47 54 89h62zM380 -55c29 0 51 -23 51 -53s-22 -54 -51 -54s-51 24 -51 54
s22 53 51 53z" />
    <glyph glyph-name="uni1EF0.ss01" 
d="M762 789c-1 -65 -35 -116 -90 -141v-648h-80v136c-49 -82 -141 -134 -256 -136c-143 0 -246 105 -246 256v444h80v-427c0 -114 79 -195 191 -195c127 3 220 92 231 208v414h54c33 15 54 47 54 89h62zM380 -55c29 0 51 -23 51 -53s-22 -54 -51 -54s-51 24 -51 54
s22 53 51 53z" />
    <glyph glyph-name="uni1EEA" unicode="&#x1eea;" 
d="M431 789h-75l-125 99l80 36zM762 789c-1 -65 -35 -116 -90 -141v-648h-80v136c-49 -82 -141 -134 -256 -136c-143 0 -246 105 -246 256v444h80v-427c0 -114 79 -195 191 -195c127 3 220 92 231 208v414h54c33 15 54 47 54 89h62z" />
    <glyph glyph-name="uni1EEA.ss01" 
d="M417 789h-75l-125 99l80 36zM762 789c-1 -65 -35 -116 -90 -141v-648h-80v136c-49 -82 -141 -134 -256 -136c-143 0 -246 105 -246 256v444h80v-427c0 -114 79 -195 191 -195c127 3 220 92 231 208v414h54c33 15 54 47 54 89h62z" />
    <glyph glyph-name="uni1EEC" unicode="&#x1eec;" 
d="M382 885c-29 0 -47 -17 -50 -44l-41 15c7 45 43 73 91 73c53 0 87 -35 87 -82c0 -39 -20 -66 -55 -93l-41 14c33 26 53 48 53 77c0 22 -15 40 -44 40zM762 789c-1 -65 -35 -116 -90 -141v-648h-80v136c-49 -82 -141 -134 -256 -136c-143 0 -246 105 -246 256v444h80v-427
c0 -114 79 -195 191 -195c127 3 220 92 231 208v414h54c33 15 54 47 54 89h62z" />
    <glyph glyph-name="uni1EEC.ss01" 
d="M368 885c-29 0 -47 -17 -50 -44l-41 15c7 45 43 73 91 73c53 0 87 -35 87 -82c0 -39 -20 -66 -55 -93l-41 14c33 26 53 48 53 77c0 22 -15 40 -44 40zM762 789c-1 -65 -35 -116 -90 -141v-648h-80v136c-49 -82 -141 -134 -256 -136c-143 0 -246 105 -246 256v444h80v-427
c0 -114 79 -195 191 -195c127 3 220 92 231 208v414h54c33 15 54 47 54 89h62z" />
    <glyph glyph-name="uni1EEE" unicode="&#x1eee;" 
d="M330 859c-28 0 -43 -19 -43 -53h-52c0 73 29 112 83 112c55 0 82 -61 121 -61c28 0 43 19 43 53h52c0 -73 -29 -112 -83 -112c-58 0 -81 61 -121 61zM762 789c-1 -65 -35 -116 -90 -141v-648h-80v136c-49 -82 -141 -134 -256 -136c-143 0 -246 105 -246 256v444h80v-427
c0 -114 79 -195 191 -195c127 3 220 92 231 208v414h54c33 15 54 47 54 89h62z" />
    <glyph glyph-name="uni1EEE.ss01" 
d="M316 859c-28 0 -43 -19 -43 -53h-52c0 73 29 112 83 112c55 0 82 -61 121 -61c28 0 43 19 43 53h52c0 -73 -29 -112 -83 -112c-58 0 -81 61 -121 61zM762 789c-1 -65 -35 -116 -90 -141v-648h-80v136c-49 -82 -141 -134 -256 -136c-143 0 -246 105 -246 256v444h80v-427
c0 -114 79 -195 191 -195c127 3 220 92 231 208v414h54c33 15 54 47 54 89h62z" />
    <glyph glyph-name="Uhungarumlaut" unicode="&#x170;" 
d="M399 893l-92 -106h-65l91 139zM454 787h-65l91 139l66 -33zM592 700h80v-700h-80v136c-49 -82 -141 -134 -256 -136c-143 0 -246 105 -246 256v444h80v-427c0 -114 79 -195 191 -195c127 3 220 92 231 208v414z" />
    <glyph glyph-name="uni0216" unicode="&#x216;" 
d="M370 859c-40 0 -70 -31 -72 -73h-55c3 76 56 129 127 129s124 -53 127 -129h-55c-2 42 -32 73 -72 73zM592 700h80v-700h-80v136c-49 -82 -141 -134 -256 -136c-143 0 -246 105 -246 256v444h80v-427c0 -114 79 -195 191 -195c127 3 220 92 231 208v414z" />
    <glyph glyph-name="uni0216.ss01" 
d="M370 859c-40 0 -70 -31 -72 -73h-55c3 76 56 129 127 129s124 -53 127 -129h-55c-2 42 -32 73 -72 73zM592 700h80v-700h-80v136c-49 -82 -141 -134 -256 -136c-143 0 -246 105 -246 256v444h80v-427c0 -114 79 -195 191 -195c127 3 220 92 231 208v414z" />
    <glyph glyph-name="Umacron" unicode="&#x16a;" 
d="M491 880v-59h-241v59h241zM592 700h80v-700h-80v136c-49 -82 -141 -134 -256 -136c-143 0 -246 105 -246 256v444h80v-427c0 -114 79 -195 191 -195c127 3 220 92 231 208v414z" />
    <glyph glyph-name="uni1E7A" unicode="&#x1e7a;" 
d="M286 944c-27 0 -47 22 -47 49c0 29 20 50 47 50s48 -21 48 -50c0 -27 -21 -49 -48 -49zM453 944c-27 0 -48 22 -48 49c0 29 21 50 48 50c26 0 47 -21 47 -50c0 -27 -21 -49 -47 -49zM249 801v59h241v-59h-241zM592 700h80v-700h-80v136c-49 -82 -141 -134 -256 -136
c-143 0 -246 105 -246 256v444h80v-427c0 -114 79 -195 191 -195c127 3 220 92 231 208v414z" />
    <glyph glyph-name="uni1E7A.ss01" 
d="M286 944c-27 0 -47 22 -47 49c0 29 20 50 47 50s48 -21 48 -50c0 -27 -21 -49 -48 -49zM453 944c-27 0 -48 22 -48 49c0 29 21 50 48 50c26 0 47 -21 47 -50c0 -27 -21 -49 -47 -49zM249 801v59h241v-59h-241zM592 700h80v-700h-80v136c-49 -82 -141 -134 -256 -136
c-143 0 -246 105 -246 256v444h80v-427c0 -114 79 -195 191 -195c127 3 220 92 231 208v414z" />
    <glyph glyph-name="Uogonek" unicode="&#x172;" 
d="M680 -120l26 -30c-22 -30 -54 -50 -87 -50c-38 0 -73 24 -73 74c0 35 17 74 55 126h-9v136c-49 -82 -141 -134 -256 -136c-143 0 -246 105 -246 256v444h80v-427c0 -114 79 -195 191 -195c127 3 220 92 231 208v414h80v-700h-27c-40 -54 -54 -88 -54 -115
c0 -24 15 -38 35 -38s38 13 54 33z" />
    <glyph glyph-name="Uring" unicode="&#x16e;" 
d="M370 739c-63 0 -115 52 -115 113s52 114 115 114s116 -53 116 -114s-53 -113 -116 -113zM370 926c-42 0 -77 -34 -77 -74s35 -73 77 -73s78 33 78 73s-36 74 -78 74zM592 700h80v-700h-80v136c-49 -82 -141 -134 -256 -136c-143 0 -246 105 -246 256v444h80v-427
c0 -114 79 -195 191 -195c127 3 220 92 231 208v414z" />
    <glyph glyph-name="Utilde" unicode="&#x168;" 
d="M316 859c-28 0 -43 -19 -43 -53h-52c0 73 29 112 83 112c55 0 82 -61 121 -61c28 0 43 19 43 53h52c0 -73 -29 -112 -83 -112c-58 0 -81 61 -121 61zM592 700h80v-700h-80v136c-49 -82 -141 -134 -256 -136c-143 0 -246 105 -246 256v444h80v-427
c0 -114 79 -195 191 -195c127 3 220 92 231 208v414z" />
    <glyph glyph-name="uni1E78" unicode="&#x1e78;" 
d="M522 1065l-124 -99h-75l120 135zM316 859c-28 0 -43 -19 -43 -53h-52c0 73 29 112 83 112c55 0 82 -61 121 -61c28 0 43 19 43 53h52c0 -73 -29 -112 -83 -112c-58 0 -81 61 -121 61zM592 700h80v-700h-80v136c-49 -82 -141 -134 -256 -136c-143 0 -246 105 -246 256v444
h80v-427c0 -114 79 -195 191 -195c127 3 220 92 231 208v414z" />
    <glyph glyph-name="uni1E78.ss01" 
d="M522 1065l-124 -99h-75l120 135zM316 859c-28 0 -43 -19 -43 -53h-52c0 73 29 112 83 112c55 0 82 -61 121 -61c28 0 43 19 43 53h52c0 -73 -29 -112 -83 -112c-58 0 -81 61 -121 61zM592 700h80v-700h-80v136c-49 -82 -141 -134 -256 -136c-143 0 -246 105 -246 256v444
h80v-427c0 -114 79 -195 191 -195c127 3 220 92 231 208v414z" />
    <glyph glyph-name="V" unicode="V" horiz-adv-x="665" 
d="M6 700h86l241 -610l242 610h84l-286 -700h-83z" />
    <glyph glyph-name="W" unicode="W" horiz-adv-x="1188" 
d="M1098 250c0 -151 -104 -253 -258 -253c-116 0 -211 58 -245 144c-34 -86 -129 -144 -246 -144c-154 0 -259 102 -259 253v450h80v-450c0 -108 76 -180 190 -180c118 0 195 72 195 180v450h80v-450c0 -108 78 -180 195 -180c114 0 188 72 188 180v450h80v-450z" />
    <glyph glyph-name="Wacute" unicode="&#x1e82;" horiz-adv-x="1188" 
d="M661 924l79 -36l-124 -99h-75zM1098 250c0 -151 -104 -253 -258 -253c-116 0 -211 58 -245 144c-34 -86 -129 -144 -246 -144c-154 0 -259 102 -259 253v450h80v-450c0 -108 76 -180 190 -180c118 0 195 72 195 180v450h80v-450c0 -108 78 -180 195 -180
c114 0 188 72 188 180v450h80v-450z" />
    <glyph glyph-name="Wcircumflex" unicode="&#x174;" horiz-adv-x="1188" 
d="M556 919h76l102 -129h-68l-72 91l-72 -91h-68zM1098 250c0 -151 -104 -253 -258 -253c-116 0 -211 58 -245 144c-34 -86 -129 -144 -246 -144c-154 0 -259 102 -259 253v450h80v-450c0 -108 76 -180 190 -180c118 0 195 72 195 180v450h80v-450c0 -108 78 -180 195 -180
c114 0 188 72 188 180v450h80v-450z" />
    <glyph glyph-name="Wdieresis" unicode="&#x1e84;" horiz-adv-x="1188" 
d="M511 901c27 0 48 -21 48 -50c0 -27 -21 -49 -48 -49s-47 22 -47 49c0 29 20 50 47 50zM678 901c26 0 47 -21 47 -50c0 -27 -21 -49 -47 -49c-27 0 -48 22 -48 49c0 29 21 50 48 50zM1098 250c0 -151 -104 -253 -258 -253c-116 0 -211 58 -245 144
c-34 -86 -129 -144 -246 -144c-154 0 -259 102 -259 253v450h80v-450c0 -108 76 -180 190 -180c118 0 195 72 195 180v450h80v-450c0 -108 78 -180 195 -180c114 0 188 72 188 180v450h80v-450z" />
    <glyph glyph-name="Wgrave" unicode="&#x1e80;" horiz-adv-x="1188" 
d="M524 924l120 -135h-75l-125 99zM1098 250c0 -151 -104 -253 -258 -253c-116 0 -211 58 -245 144c-34 -86 -129 -144 -246 -144c-154 0 -259 102 -259 253v450h80v-450c0 -108 76 -180 190 -180c118 0 195 72 195 180v450h80v-450c0 -108 78 -180 195 -180
c114 0 188 72 188 180v450h80v-450z" />
    <glyph glyph-name="X" unicode="X" horiz-adv-x="665" 
d="M40 700h94l193 -273l195 273h94l-238 -336l258 -364h-96l-213 295l-211 -295h-94l257 360z" />
    <glyph glyph-name="Y" unicode="Y" horiz-adv-x="737" 
d="M568 700h79v-538c0 -156 -115 -265 -277 -265c-107 0 -220 47 -275 114l40 57c48 -57 142 -98 226 -98c121 0 207 81 207 194v125c-45 -80 -125 -130 -224 -132c-149 0 -254 108 -254 260v283h80v-276c0 -112 78 -192 188 -192c114 2 200 87 210 208v260z" />
    <glyph glyph-name="Yacute" unicode="&#xdd;" horiz-adv-x="737" 
d="M515 888l-124 -99h-75l120 135zM568 700h79v-538c0 -156 -115 -265 -277 -265c-107 0 -220 47 -275 114l40 57c48 -57 142 -98 226 -98c121 0 207 81 207 194v125c-45 -80 -125 -130 -224 -132c-149 0 -254 108 -254 260v283h80v-276c0 -112 78 -192 188 -192
c114 2 200 87 210 208v260z" />
    <glyph glyph-name="Ycircumflex" unicode="&#x176;" horiz-adv-x="737" 
d="M369 881l-72 -91h-68l102 129h76l102 -129h-68zM568 700h79v-538c0 -156 -115 -265 -277 -265c-107 0 -220 47 -275 114l40 57c48 -57 142 -98 226 -98c121 0 207 81 207 194v125c-45 -80 -125 -130 -224 -132c-149 0 -254 108 -254 260v283h80v-276
c0 -112 78 -192 188 -192c114 2 200 87 210 208v260z" />
    <glyph glyph-name="Ydieresis" unicode="&#x178;" horiz-adv-x="737" 
d="M286 802c-27 0 -47 22 -47 49c0 29 20 50 47 50s48 -21 48 -50c0 -27 -21 -49 -48 -49zM453 802c-27 0 -48 22 -48 49c0 29 21 50 48 50c26 0 47 -21 47 -50c0 -27 -21 -49 -47 -49zM568 700h79v-538c0 -156 -115 -265 -277 -265c-107 0 -220 47 -275 114l40 57
c48 -57 142 -98 226 -98c121 0 207 81 207 194v125c-45 -80 -125 -130 -224 -132c-149 0 -254 108 -254 260v283h80v-276c0 -112 78 -192 188 -192c114 2 200 87 210 208v260z" />
    <glyph glyph-name="uni1E8E" unicode="&#x1e8e;" horiz-adv-x="737" 
d="M369 798c-29 0 -51 23 -51 53c0 31 22 53 51 53s51 -22 51 -53c0 -30 -22 -53 -51 -53zM568 700h79v-538c0 -156 -115 -265 -277 -265c-107 0 -220 47 -275 114l40 57c48 -57 142 -98 226 -98c121 0 207 81 207 194v125c-45 -80 -125 -130 -224 -132
c-149 0 -254 108 -254 260v283h80v-276c0 -112 78 -192 188 -192c114 2 200 87 210 208v260z" />
    <glyph glyph-name="uni1E8E.ss01" horiz-adv-x="737" 
d="M369 798c-29 0 -51 23 -51 53c0 31 22 53 51 53s51 -22 51 -53c0 -30 -22 -53 -51 -53zM568 700h79v-538c0 -156 -115 -265 -277 -265c-107 0 -220 47 -275 114l40 57c48 -57 142 -98 226 -98c121 0 207 81 207 194v125c-45 -80 -125 -130 -224 -132
c-149 0 -254 108 -254 260v283h80v-276c0 -112 78 -192 188 -192c114 2 200 87 210 208v260z" />
    <glyph glyph-name="uni1EF4" unicode="&#x1ef4;" horiz-adv-x="737" 
d="M568 700h79v-538c0 -156 -115 -265 -277 -265c-107 0 -220 47 -275 114l40 57c48 -57 142 -98 226 -98c121 0 207 81 207 194v125c-45 -80 -125 -130 -224 -132c-149 0 -254 108 -254 260v283h80v-276c0 -112 78 -192 188 -192c114 2 200 87 210 208v260zM380 -150
c29 0 51 -23 51 -53s-22 -54 -51 -54s-51 24 -51 54s22 53 51 53z" />
    <glyph glyph-name="uni1EF4.ss01" horiz-adv-x="737" 
d="M568 700h79v-538c0 -156 -115 -265 -277 -265c-107 0 -220 47 -275 114l40 57c48 -57 142 -98 226 -98c121 0 207 81 207 194v125c-45 -80 -125 -130 -224 -132c-149 0 -254 108 -254 260v283h80v-276c0 -112 78 -192 188 -192c114 2 200 87 210 208v260zM380 -150
c29 0 51 -23 51 -53s-22 -54 -51 -54s-51 24 -51 54s22 53 51 53z" />
    <glyph glyph-name="Ygrave" unicode="&#x1ef2;" horiz-adv-x="737" 
d="M419 789h-75l-125 99l80 36zM568 700h79v-538c0 -156 -115 -265 -277 -265c-107 0 -220 47 -275 114l40 57c48 -57 142 -98 226 -98c121 0 207 81 207 194v125c-45 -80 -125 -130 -224 -132c-149 0 -254 108 -254 260v283h80v-276c0 -112 78 -192 188 -192
c114 2 200 87 210 208v260z" />
    <glyph glyph-name="uni1EF6" unicode="&#x1ef6;" horiz-adv-x="737" 
d="M367 885c-29 0 -47 -17 -50 -44l-41 15c7 45 43 73 91 73c53 0 87 -35 87 -82c0 -39 -20 -66 -55 -93l-41 14c33 26 53 48 53 77c0 22 -15 40 -44 40zM568 700h79v-538c0 -156 -115 -265 -277 -265c-107 0 -220 47 -275 114l40 57c48 -57 142 -98 226 -98
c121 0 207 81 207 194v125c-45 -80 -125 -130 -224 -132c-149 0 -254 108 -254 260v283h80v-276c0 -112 78 -192 188 -192c114 2 200 87 210 208v260z" />
    <glyph glyph-name="uni1EF6.ss01" horiz-adv-x="737" 
d="M367 885c-29 0 -47 -17 -50 -44l-41 15c7 45 43 73 91 73c53 0 87 -35 87 -82c0 -39 -20 -66 -55 -93l-41 14c33 26 53 48 53 77c0 22 -15 40 -44 40zM568 700h79v-538c0 -156 -115 -265 -277 -265c-107 0 -220 47 -275 114l40 57c48 -57 142 -98 226 -98
c121 0 207 81 207 194v125c-45 -80 -125 -130 -224 -132c-149 0 -254 108 -254 260v283h80v-276c0 -112 78 -192 188 -192c114 2 200 87 210 208v260z" />
    <glyph glyph-name="uni0232" unicode="&#x232;" horiz-adv-x="737" 
d="M489 860v-59h-241v59h241zM568 700h79v-538c0 -156 -115 -265 -277 -265c-107 0 -220 47 -275 114l40 57c48 -57 142 -98 226 -98c121 0 207 81 207 194v125c-45 -80 -125 -130 -224 -132c-149 0 -254 108 -254 260v283h80v-276c0 -112 78 -192 188 -192
c114 2 200 87 210 208v260z" />
    <glyph glyph-name="uni0232.ss01" horiz-adv-x="737" 
d="M489 860v-59h-241v59h241zM568 700h79v-538c0 -156 -115 -265 -277 -265c-107 0 -220 47 -275 114l40 57c48 -57 142 -98 226 -98c121 0 207 81 207 194v125c-45 -80 -125 -130 -224 -132c-149 0 -254 108 -254 260v283h80v-276c0 -112 78 -192 188 -192
c114 2 200 87 210 208v260z" />
    <glyph glyph-name="uni1EF8" unicode="&#x1ef8;" horiz-adv-x="737" 
d="M315 859c-28 0 -43 -19 -43 -53h-52c0 73 29 112 83 112c55 0 82 -61 121 -61c28 0 43 19 43 53h52c0 -73 -29 -112 -83 -112c-58 0 -81 61 -121 61zM568 700h79v-538c0 -156 -115 -265 -277 -265c-107 0 -220 47 -275 114l40 57c48 -57 142 -98 226 -98
c121 0 207 81 207 194v125c-45 -80 -125 -130 -224 -132c-149 0 -254 108 -254 260v283h80v-276c0 -112 78 -192 188 -192c114 2 200 87 210 208v260z" />
    <glyph glyph-name="uni1EF8.ss01" horiz-adv-x="737" 
d="M315 859c-28 0 -43 -19 -43 -53h-52c0 73 29 112 83 112c55 0 82 -61 121 -61c28 0 43 19 43 53h52c0 -73 -29 -112 -83 -112c-58 0 -81 61 -121 61zM568 700h79v-538c0 -156 -115 -265 -277 -265c-107 0 -220 47 -275 114l40 57c48 -57 142 -98 226 -98
c121 0 207 81 207 194v125c-45 -80 -125 -130 -224 -132c-149 0 -254 108 -254 260v283h80v-276c0 -112 78 -192 188 -192c114 2 200 87 210 208v260z" />
    <glyph glyph-name="Z" unicode="Z" horiz-adv-x="660" 
d="M148 74h469l-1 -74h-573v62l210 255h-143v67h198l199 242h-451v74h556v-62l-212 -258h142v-68h-198z" />
    <glyph glyph-name="Zacute" unicode="&#x179;" horiz-adv-x="660" 
d="M481 888l-124 -99h-75l120 135zM148 74h469l-1 -74h-573v62l210 255h-143v67h198l199 242h-451v74h556v-62l-212 -258h142v-68h-198z" />
    <glyph glyph-name="Zcaron" unicode="&#x17d;" horiz-adv-x="660" 
d="M374 784h-82l-104 135h73l72 -94l72 94h73zM148 74h469l-1 -74h-573v62l210 255h-143v67h198l199 242h-451v74h556v-62l-212 -258h142v-68h-198z" />
    <glyph glyph-name="Zdotaccent" unicode="&#x17b;" horiz-adv-x="660" 
d="M335 798c-29 0 -51 23 -51 53c0 31 22 53 51 53s51 -22 51 -53c0 -30 -22 -53 -51 -53zM148 74h469l-1 -74h-573v62l210 255h-143v67h198l199 242h-451v74h556v-62l-212 -258h142v-68h-198z" />
    <glyph glyph-name="uni1E92" unicode="&#x1e92;" horiz-adv-x="660" 
d="M148 74h469l-1 -74h-573v62l210 255h-143v67h198l199 242h-451v74h556v-62l-212 -258h142v-68h-198zM330 -56c29 0 51 -22 51 -53c0 -30 -22 -53 -51 -53s-51 23 -51 53c0 31 22 53 51 53z" />
    <glyph glyph-name="uni1E92.ss01" horiz-adv-x="660" 
d="M148 74h469l-1 -74h-573v62l210 255h-143v67h198l199 242h-451v74h556v-62l-212 -258h142v-68h-198zM330 -56c29 0 51 -22 51 -53c0 -30 -22 -53 -51 -53s-51 23 -51 53c0 31 22 53 51 53z" />
    <glyph glyph-name="a" unicode="a" horiz-adv-x="672" 
d="M500 526h78v-526h-78v112c-39 -73 -111 -116 -204 -116c-150 0 -254 111 -254 268c0 156 103 266 251 266c95 1 167 -42 207 -116v112zM311 63c104 0 180 73 189 179v40c-9 106 -85 180 -189 180c-112 0 -191 -84 -191 -200s79 -199 191 -199z" />
    <glyph glyph-name="aacute" unicode="&#xe1;" horiz-adv-x="672" 
d="M479 714l-124 -99h-75l120 135zM500 526h78v-526h-78v112c-39 -73 -111 -116 -204 -116c-150 0 -254 111 -254 268c0 156 103 266 251 266c95 1 167 -42 207 -116v112zM311 63c104 0 180 73 189 179v40c-9 106 -85 180 -189 180c-112 0 -191 -84 -191 -200
s79 -199 191 -199z" />
    <glyph glyph-name="abreve" unicode="&#x103;" horiz-adv-x="672" 
d="M333 611c-71 0 -124 53 -127 129h55c2 -42 32 -73 72 -73s70 31 72 73h55c-3 -76 -56 -129 -127 -129zM500 526h78v-526h-78v112c-39 -73 -111 -116 -204 -116c-150 0 -254 111 -254 268c0 156 103 266 251 266c95 1 167 -42 207 -116v112zM311 63c104 0 180 73 189 179
v40c-9 106 -85 180 -189 180c-112 0 -191 -84 -191 -200s79 -199 191 -199z" />
    <glyph glyph-name="uni1EAF" unicode="&#x1eaf;" horiz-adv-x="672" 
d="M495 870l-124 -99h-75l120 135zM333 612c-71 0 -124 53 -127 129h55c2 -42 32 -73 72 -73s70 31 72 73h55c-3 -76 -56 -129 -127 -129zM500 526h78v-526h-78v112c-39 -73 -111 -116 -204 -116c-150 0 -254 111 -254 268c0 156 103 266 251 266c95 1 167 -42 207 -116v112
zM311 63c104 0 180 73 189 179v40c-9 106 -85 180 -189 180c-112 0 -191 -84 -191 -200s79 -199 191 -199z" />
    <glyph glyph-name="uni1EAF.ss01" horiz-adv-x="672" 
d="M495 870l-124 -99h-75l120 135zM333 612c-71 0 -124 53 -127 129h55c2 -42 32 -73 72 -73s70 31 72 73h55c-3 -76 -56 -129 -127 -129zM500 526h78v-526h-78v112c-39 -73 -111 -116 -204 -116c-150 0 -254 111 -254 268c0 156 103 266 251 266c95 1 167 -42 207 -116v112
zM311 63c104 0 180 73 189 179v40c-9 106 -85 180 -189 180c-112 0 -191 -84 -191 -200s79 -199 191 -199z" />
    <glyph glyph-name="uni1EB7" unicode="&#x1eb7;" horiz-adv-x="672" 
d="M333 612c-71 0 -124 53 -127 129h55c2 -42 32 -73 72 -73s70 31 72 73h55c-3 -76 -56 -129 -127 -129zM500 526h78v-526h-78v112c-39 -73 -111 -116 -204 -116c-150 0 -254 111 -254 268c0 156 103 266 251 266c95 1 167 -42 207 -116v112zM311 63c104 0 180 73 189 179
v40c-9 106 -85 180 -189 180c-112 0 -191 -84 -191 -200s79 -199 191 -199zM333 -55c29 0 51 -23 51 -53s-22 -54 -51 -54s-51 24 -51 54s22 53 51 53z" />
    <glyph glyph-name="uni1EB7.ss01" horiz-adv-x="672" 
d="M333 612c-71 0 -124 53 -127 129h55c2 -42 32 -73 72 -73s70 31 72 73h55c-3 -76 -56 -129 -127 -129zM500 526h78v-526h-78v112c-39 -73 -111 -116 -204 -116c-150 0 -254 111 -254 268c0 156 103 266 251 266c95 1 167 -42 207 -116v112zM311 63c104 0 180 73 189 179
v40c-9 106 -85 180 -189 180c-112 0 -191 -84 -191 -200s79 -199 191 -199zM333 -55c29 0 51 -23 51 -53s-22 -54 -51 -54s-51 24 -51 54s22 53 51 53z" />
    <glyph glyph-name="uni1EB1" unicode="&#x1eb1;" horiz-adv-x="672" 
d="M371 771h-75l-124 99l79 36zM261 741c2 -42 32 -73 72 -73s70 31 72 73h55c-3 -76 -56 -129 -127 -129s-124 53 -127 129h55zM500 526h78v-526h-78v112c-39 -73 -111 -116 -204 -116c-150 0 -254 111 -254 268c0 156 103 266 251 266c95 1 167 -42 207 -116v112zM311 63
c104 0 180 73 189 179v40c-9 106 -85 180 -189 180c-112 0 -191 -84 -191 -200s79 -199 191 -199z" />
    <glyph glyph-name="uni1EB1.ss01" horiz-adv-x="672" 
d="M371 771h-75l-124 99l79 36zM261 741c2 -42 32 -73 72 -73s70 31 72 73h55c-3 -76 -56 -129 -127 -129s-124 53 -127 129h55zM500 526h78v-526h-78v112c-39 -73 -111 -116 -204 -116c-150 0 -254 111 -254 268c0 156 103 266 251 266c95 1 167 -42 207 -116v112zM311 63
c104 0 180 73 189 179v40c-9 106 -85 180 -189 180c-112 0 -191 -84 -191 -200s79 -199 191 -199z" />
    <glyph glyph-name="uni1EB3" unicode="&#x1eb3;" horiz-adv-x="672" 
d="M338 884c-29 0 -47 -17 -50 -44l-41 15c7 45 43 73 92 73c52 0 86 -35 86 -82c0 -39 -20 -66 -55 -93l-41 14c33 26 53 48 53 77c0 22 -15 40 -44 40zM333 612c-71 0 -124 53 -127 129h55c2 -42 32 -73 72 -73s70 31 72 73h55c-3 -76 -56 -129 -127 -129zM500 526h78
v-526h-78v112c-39 -73 -111 -116 -204 -116c-150 0 -254 111 -254 268c0 156 103 266 251 266c95 1 167 -42 207 -116v112zM311 63c104 0 180 73 189 179v40c-9 106 -85 180 -189 180c-112 0 -191 -84 -191 -200s79 -199 191 -199z" />
    <glyph glyph-name="uni1EB3.ss01" horiz-adv-x="672" 
d="M338 884c-29 0 -47 -17 -50 -44l-41 15c7 45 43 73 92 73c52 0 86 -35 86 -82c0 -39 -20 -66 -55 -93l-41 14c33 26 53 48 53 77c0 22 -15 40 -44 40zM333 612c-71 0 -124 53 -127 129h55c2 -42 32 -73 72 -73s70 31 72 73h55c-3 -76 -56 -129 -127 -129zM500 526h78
v-526h-78v112c-39 -73 -111 -116 -204 -116c-150 0 -254 111 -254 268c0 156 103 266 251 266c95 1 167 -42 207 -116v112zM311 63c104 0 180 73 189 179v40c-9 106 -85 180 -189 180c-112 0 -191 -84 -191 -200s79 -199 191 -199z" />
    <glyph glyph-name="uni1EB5" unicode="&#x1eb5;" horiz-adv-x="672" 
d="M277 822c-27 0 -42 -20 -42 -54h-53c0 74 29 112 83 112c55 0 82 -61 121 -61c28 0 43 19 43 53h53c0 -72 -30 -111 -83 -111c-59 0 -82 61 -122 61zM333 668c40 0 70 31 72 73h55c-3 -76 -56 -129 -127 -129s-124 53 -127 129h55c2 -42 32 -73 72 -73zM500 526h78v-526
h-78v112c-39 -73 -111 -116 -204 -116c-150 0 -254 111 -254 268c0 156 103 266 251 266c95 1 167 -42 207 -116v112zM311 63c104 0 180 73 189 179v40c-9 106 -85 180 -189 180c-112 0 -191 -84 -191 -200s79 -199 191 -199z" />
    <glyph glyph-name="uni1EB5.ss01" horiz-adv-x="672" 
d="M277 822c-27 0 -42 -20 -42 -54h-53c0 74 29 112 83 112c55 0 82 -61 121 -61c28 0 43 19 43 53h53c0 -72 -30 -111 -83 -111c-59 0 -82 61 -122 61zM333 668c40 0 70 31 72 73h55c-3 -76 -56 -129 -127 -129s-124 53 -127 129h55c2 -42 32 -73 72 -73zM500 526h78v-526
h-78v112c-39 -73 -111 -116 -204 -116c-150 0 -254 111 -254 268c0 156 103 266 251 266c95 1 167 -42 207 -116v112zM311 63c104 0 180 73 189 179v40c-9 106 -85 180 -189 180c-112 0 -191 -84 -191 -200s79 -199 191 -199z" />
    <glyph glyph-name="acircumflex" unicode="&#xe2;" horiz-adv-x="672" 
d="M333 707l-72 -91h-68l102 129h76l102 -129h-68zM500 526h78v-526h-78v112c-39 -73 -111 -116 -204 -116c-150 0 -254 111 -254 268c0 156 103 266 251 266c95 1 167 -42 207 -116v112zM311 63c104 0 180 73 189 179v40c-9 106 -85 180 -189 180
c-112 0 -191 -84 -191 -200s79 -199 191 -199z" />
    <glyph glyph-name="uni1EA5" unicode="&#x1ea5;" horiz-adv-x="672" 
d="M619 816l-125 -99h-64l120 135zM333 709l-72 -91h-68l102 129h76l102 -129h-68zM500 414v112h78v-526h-78v112c-39 -73 -111 -116 -204 -116c-150 0 -254 111 -254 268c0 156 103 266 251 266c95 1 167 -42 207 -116zM311 63c104 0 180 73 189 179v40
c-9 106 -85 180 -189 180c-112 0 -191 -84 -191 -200s79 -199 191 -199z" />
    <glyph glyph-name="uni1EA5.ss01" horiz-adv-x="672" 
d="M619 816l-125 -99h-64l120 135zM333 709l-72 -91h-68l102 129h76l102 -129h-68zM500 414v112h78v-526h-78v112c-39 -73 -111 -116 -204 -116c-150 0 -254 111 -254 268c0 156 103 266 251 266c95 1 167 -42 207 -116zM311 63c104 0 180 73 189 179v40
c-9 106 -85 180 -189 180c-112 0 -191 -84 -191 -200s79 -199 191 -199z" />
    <glyph glyph-name="uni1EAD" unicode="&#x1ead;" horiz-adv-x="672" 
d="M333 709l-72 -91h-68l102 129h76l102 -129h-68zM500 526h78v-526h-78v112c-39 -73 -111 -116 -204 -116c-150 0 -254 111 -254 268c0 156 103 266 251 266c95 1 167 -42 207 -116v112zM311 63c104 0 180 73 189 179v40c-9 106 -85 180 -189 180
c-112 0 -191 -84 -191 -200s79 -199 191 -199zM333 -55c29 0 51 -23 51 -53s-22 -54 -51 -54s-51 24 -51 54s22 53 51 53z" />
    <glyph glyph-name="uni1EAD.ss01" horiz-adv-x="672" 
d="M333 709l-72 -91h-68l102 129h76l102 -129h-68zM500 526h78v-526h-78v112c-39 -73 -111 -116 -204 -116c-150 0 -254 111 -254 268c0 156 103 266 251 266c95 1 167 -42 207 -116v112zM311 63c104 0 180 73 189 179v40c-9 106 -85 180 -189 180
c-112 0 -191 -84 -191 -200s79 -199 191 -199zM333 -55c29 0 51 -23 51 -53s-22 -54 -51 -54s-51 24 -51 54s22 53 51 53z" />
    <glyph glyph-name="uni1EA7" unicode="&#x1ea7;" horiz-adv-x="672" 
d="M554 703h-64l-124 99l68 36zM333 709l-72 -91h-68l102 129h76l102 -129h-68zM500 526h78v-526h-78v112c-39 -73 -111 -116 -204 -116c-150 0 -254 111 -254 268c0 156 103 266 251 266c95 1 167 -42 207 -116v112zM311 63c104 0 180 73 189 179v40
c-9 106 -85 180 -189 180c-112 0 -191 -84 -191 -200s79 -199 191 -199z" />
    <glyph glyph-name="uni1EA7.ss01" horiz-adv-x="672" 
d="M554 703h-64l-124 99l68 36zM333 709l-72 -91h-68l102 129h76l102 -129h-68zM500 526h78v-526h-78v112c-39 -73 -111 -116 -204 -116c-150 0 -254 111 -254 268c0 156 103 266 251 266c95 1 167 -42 207 -116v112zM311 63c104 0 180 73 189 179v40
c-9 106 -85 180 -189 180c-112 0 -191 -84 -191 -200s79 -199 191 -199z" />
    <glyph glyph-name="uni1EA9" unicode="&#x1ea9;" horiz-adv-x="672" 
d="M446 842c-29 0 -47 -17 -50 -44l-41 15c7 45 43 73 92 73c52 0 86 -35 86 -82c0 -39 -20 -66 -55 -93l-41 14c33 26 53 48 53 77c0 22 -15 40 -44 40zM333 709l-72 -91h-68l102 129h76l102 -129h-68zM500 526h78v-526h-78v112c-39 -73 -111 -116 -204 -116
c-150 0 -254 111 -254 268c0 156 103 266 251 266c95 1 167 -42 207 -116v112zM311 63c104 0 180 73 189 179v40c-9 106 -85 180 -189 180c-112 0 -191 -84 -191 -200s79 -199 191 -199z" />
    <glyph glyph-name="uni1EA9.ss01" horiz-adv-x="672" 
d="M446 842c-29 0 -47 -17 -50 -44l-41 15c7 45 43 73 92 73c52 0 86 -35 86 -82c0 -39 -20 -66 -55 -93l-41 14c33 26 53 48 53 77c0 22 -15 40 -44 40zM333 709l-72 -91h-68l102 129h76l102 -129h-68zM500 526h78v-526h-78v112c-39 -73 -111 -116 -204 -116
c-150 0 -254 111 -254 268c0 156 103 266 251 266c95 1 167 -42 207 -116v112zM311 63c104 0 180 73 189 179v40c-9 106 -85 180 -189 180c-112 0 -191 -84 -191 -200s79 -199 191 -199z" />
    <glyph glyph-name="uni1EAB" unicode="&#x1eab;" horiz-adv-x="672" 
d="M275 821c-27 0 -42 -19 -42 -53h-53c0 73 29 112 83 112c56 0 82 -61 122 -61c27 0 42 19 42 53h53c0 -73 -29 -111 -83 -111c-59 0 -82 60 -122 60zM295 747h76l102 -129h-68l-72 91l-72 -91h-68zM500 526h78v-526h-78v112c-39 -73 -111 -116 -204 -116
c-150 0 -254 111 -254 268c0 156 103 266 251 266c95 1 167 -42 207 -116v112zM311 63c104 0 180 73 189 179v40c-9 106 -85 180 -189 180c-112 0 -191 -84 -191 -200s79 -199 191 -199z" />
    <glyph glyph-name="uni1EAB.ss01" horiz-adv-x="672" 
d="M275 821c-27 0 -42 -19 -42 -53h-53c0 73 29 112 83 112c56 0 82 -61 122 -61c27 0 42 19 42 53h53c0 -73 -29 -111 -83 -111c-59 0 -82 60 -122 60zM295 747h76l102 -129h-68l-72 91l-72 -91h-68zM500 526h78v-526h-78v112c-39 -73 -111 -116 -204 -116
c-150 0 -254 111 -254 268c0 156 103 266 251 266c95 1 167 -42 207 -116v112zM311 63c104 0 180 73 189 179v40c-9 106 -85 180 -189 180c-112 0 -191 -84 -191 -200s79 -199 191 -199z" />
    <glyph glyph-name="uni0201" unicode="&#x201;" horiz-adv-x="672" 
d="M301 615h-65l-93 106l67 33zM448 615h-65l-93 106l67 33zM500 526h78v-526h-78v112c-39 -73 -111 -116 -204 -116c-150 0 -254 111 -254 268c0 156 103 266 251 266c95 1 167 -42 207 -116v112zM311 63c104 0 180 73 189 179v40c-9 106 -85 180 -189 180
c-112 0 -191 -84 -191 -200s79 -199 191 -199z" />
    <glyph glyph-name="uni0201.ss01" horiz-adv-x="672" 
d="M301 615h-65l-93 106l67 33zM448 615h-65l-93 106l67 33zM500 526h78v-526h-78v112c-39 -73 -111 -116 -204 -116c-150 0 -254 111 -254 268c0 156 103 266 251 266c95 1 167 -42 207 -116v112zM311 63c104 0 180 73 189 179v40c-9 106 -85 180 -189 180
c-112 0 -191 -84 -191 -200s79 -199 191 -199z" />
    <glyph glyph-name="adieresis" unicode="&#xe4;" horiz-adv-x="672" 
d="M250 628c-27 0 -47 22 -47 49c0 29 20 50 47 50s48 -21 48 -50c0 -27 -21 -49 -48 -49zM417 628c-27 0 -48 22 -48 49c0 29 21 50 48 50c26 0 47 -21 47 -50c0 -27 -21 -49 -47 -49zM500 526h78v-526h-78v112c-39 -73 -111 -116 -204 -116c-150 0 -254 111 -254 268
c0 156 103 266 251 266c95 1 167 -42 207 -116v112zM311 63c104 0 180 73 189 179v40c-9 106 -85 180 -189 180c-112 0 -191 -84 -191 -200s79 -199 191 -199z" />
    <glyph glyph-name="uni1EA1" unicode="&#x1ea1;" horiz-adv-x="672" 
d="M500 526h78v-526h-78v112c-39 -73 -111 -116 -204 -116c-150 0 -254 111 -254 268c0 156 103 266 251 266c95 1 167 -42 207 -116v112zM311 63c104 0 180 73 189 179v40c-9 106 -85 180 -189 180c-112 0 -191 -84 -191 -200s79 -199 191 -199zM333 -55
c29 0 51 -23 51 -53s-22 -54 -51 -54s-51 24 -51 54s22 53 51 53z" />
    <glyph glyph-name="uni1EA1.ss01" horiz-adv-x="672" 
d="M500 526h78v-526h-78v112c-39 -73 -111 -116 -204 -116c-150 0 -254 111 -254 268c0 156 103 266 251 266c95 1 167 -42 207 -116v112zM311 63c104 0 180 73 189 179v40c-9 106 -85 180 -189 180c-112 0 -191 -84 -191 -200s79 -199 191 -199zM333 -55
c29 0 51 -23 51 -53s-22 -54 -51 -54s-51 24 -51 54s22 53 51 53z" />
    <glyph glyph-name="agrave" unicode="&#xe0;" horiz-adv-x="672" 
d="M383 615h-75l-125 99l80 36zM500 526h78v-526h-78v112c-39 -73 -111 -116 -204 -116c-150 0 -254 111 -254 268c0 156 103 266 251 266c95 1 167 -42 207 -116v112zM311 63c104 0 180 73 189 179v40c-9 106 -85 180 -189 180c-112 0 -191 -84 -191 -200s79 -199 191 -199
z" />
    <glyph glyph-name="uni1EA3" unicode="&#x1ea3;" horiz-adv-x="672" 
d="M331 711c-29 0 -47 -17 -50 -44l-41 15c7 45 43 73 91 73c53 0 87 -35 87 -82c0 -39 -20 -66 -55 -93l-41 14c33 26 53 48 53 77c0 22 -15 40 -44 40zM500 526h78v-526h-78v112c-39 -73 -111 -116 -204 -116c-150 0 -254 111 -254 268c0 156 103 266 251 266
c95 1 167 -42 207 -116v112zM311 63c104 0 180 73 189 179v40c-9 106 -85 180 -189 180c-112 0 -191 -84 -191 -200s79 -199 191 -199z" />
    <glyph glyph-name="uni1EA3.ss01" horiz-adv-x="672" 
d="M331 711c-29 0 -47 -17 -50 -44l-41 15c7 45 43 73 91 73c53 0 87 -35 87 -82c0 -39 -20 -66 -55 -93l-41 14c33 26 53 48 53 77c0 22 -15 40 -44 40zM500 526h78v-526h-78v112c-39 -73 -111 -116 -204 -116c-150 0 -254 111 -254 268c0 156 103 266 251 266
c95 1 167 -42 207 -116v112zM311 63c104 0 180 73 189 179v40c-9 106 -85 180 -189 180c-112 0 -191 -84 -191 -200s79 -199 191 -199z" />
    <glyph glyph-name="uni0203" unicode="&#x203;" horiz-adv-x="672" 
d="M333 685c-40 0 -70 -31 -72 -73h-55c3 76 56 129 127 129s124 -53 127 -129h-55c-2 42 -32 73 -72 73zM500 526h78v-526h-78v112c-39 -73 -111 -116 -204 -116c-150 0 -254 111 -254 268c0 156 103 266 251 266c95 1 167 -42 207 -116v112zM311 63c104 0 180 73 189 179
v40c-9 106 -85 180 -189 180c-112 0 -191 -84 -191 -200s79 -199 191 -199z" />
    <glyph glyph-name="uni0203.ss01" horiz-adv-x="672" 
d="M333 685c-40 0 -70 -31 -72 -73h-55c3 76 56 129 127 129s124 -53 127 -129h-55c-2 42 -32 73 -72 73zM500 526h78v-526h-78v112c-39 -73 -111 -116 -204 -116c-150 0 -254 111 -254 268c0 156 103 266 251 266c95 1 167 -42 207 -116v112zM311 63c104 0 180 73 189 179
v40c-9 106 -85 180 -189 180c-112 0 -191 -84 -191 -200s79 -199 191 -199z" />
    <glyph glyph-name="amacron" unicode="&#x101;" horiz-adv-x="672" 
d="M454 706v-59h-241v59h241zM500 526h78v-526h-78v112c-39 -73 -111 -116 -204 -116c-150 0 -254 111 -254 268c0 156 103 266 251 266c95 1 167 -42 207 -116v112zM311 63c104 0 180 73 189 179v40c-9 106 -85 180 -189 180c-112 0 -191 -84 -191 -200s79 -199 191 -199z
" />
    <glyph glyph-name="aogonek" unicode="&#x105;" horiz-adv-x="672" 
d="M597 -120l26 -30c-22 -30 -54 -50 -87 -50c-38 0 -73 24 -73 74c0 35 17 74 55 126h-18v112c-39 -73 -111 -116 -204 -116c-150 0 -254 111 -254 268c0 156 103 266 251 266c95 1 167 -42 207 -116v112h78v-526h-16c-40 -54 -54 -88 -54 -115c0 -24 15 -38 35 -38
s38 13 54 33zM311 63c104 0 180 73 189 179v40c-9 106 -85 180 -189 180c-112 0 -191 -84 -191 -200s79 -199 191 -199z" />
    <glyph glyph-name="aring" unicode="&#xe5;" horiz-adv-x="672" 
d="M333 565c-63 0 -115 52 -115 113s52 114 115 114s116 -53 116 -114s-53 -113 -116 -113zM333 752c-42 0 -77 -34 -77 -74s35 -73 77 -73s78 33 78 73s-36 74 -78 74zM500 526h78v-526h-78v112c-39 -73 -111 -116 -204 -116c-150 0 -254 111 -254 268
c0 156 103 266 251 266c95 1 167 -42 207 -116v112zM311 63c104 0 180 73 189 179v40c-9 106 -85 180 -189 180c-112 0 -191 -84 -191 -200s79 -199 191 -199z" />
    <glyph glyph-name="aringacute" unicode="&#x1fb;" horiz-adv-x="672" 
d="M485 928l-124 -99h-75l120 135zM333 565c-63 0 -115 52 -115 113s52 114 115 114s116 -53 116 -114s-53 -113 -116 -113zM333 752c-42 0 -77 -34 -77 -74s35 -73 77 -73s78 33 78 73s-36 74 -78 74zM500 526h78v-526h-78v112c-39 -73 -111 -116 -204 -116
c-150 0 -254 111 -254 268c0 156 103 266 251 266c95 1 167 -42 207 -116v112zM311 63c104 0 180 73 189 179v40c-9 106 -85 180 -189 180c-112 0 -191 -84 -191 -200s79 -199 191 -199z" />
    <glyph glyph-name="aringacute.ss01" horiz-adv-x="672" 
d="M485 928l-124 -99h-75l120 135zM333 565c-63 0 -115 52 -115 113s52 114 115 114s116 -53 116 -114s-53 -113 -116 -113zM333 752c-42 0 -77 -34 -77 -74s35 -73 77 -73s78 33 78 73s-36 74 -78 74zM500 526h78v-526h-78v112c-39 -73 -111 -116 -204 -116
c-150 0 -254 111 -254 268c0 156 103 266 251 266c95 1 167 -42 207 -116v112zM311 63c104 0 180 73 189 179v40c-9 106 -85 180 -189 180c-112 0 -191 -84 -191 -200s79 -199 191 -199z" />
    <glyph glyph-name="atilde" unicode="&#xe3;" horiz-adv-x="672" 
d="M279 685c-28 0 -43 -19 -43 -53h-52c0 73 29 112 83 112c55 0 82 -61 121 -61c28 0 43 19 43 53h52c0 -73 -29 -112 -83 -112c-58 0 -81 61 -121 61zM500 526h78v-526h-78v112c-39 -73 -111 -116 -204 -116c-150 0 -254 111 -254 268c0 156 103 266 251 266
c95 1 167 -42 207 -116v112zM311 63c104 0 180 73 189 179v40c-9 106 -85 180 -189 180c-112 0 -191 -84 -191 -200s79 -199 191 -199z" />
    <glyph glyph-name="ae" unicode="&#xe6;" horiz-adv-x="968" 
d="M700 62c65 0 122 27 167 77l46 -43c-55 -65 -129 -99 -218 -99c-104 0 -193 50 -237 134c-44 -89 -121 -134 -228 -134c-106 0 -180 66 -180 159s74 150 197 151h174v32c-1 81 -52 125 -143 125c-55 0 -108 -20 -166 -61l-33 55c79 52 135 71 215 71
c94 0 160 -38 185 -105c43 66 121 105 214 105c127 0 217 -78 236 -206l-407 -139c27 -74 95 -122 178 -122zM693 463c-115 0 -186 -77 -185 -203c0 -5 0 -11 1 -16l342 118c-28 67 -82 101 -158 101zM422 185v60h-164c-90 0 -135 -28 -135 -86c0 -59 48 -97 121 -97
c91 0 155 45 178 123z" />
    <glyph glyph-name="aeacute" unicode="&#x1fd;" horiz-adv-x="968" 
d="M633 714l-124 -99h-75l120 135zM700 62c65 0 122 27 167 77l46 -43c-55 -65 -129 -99 -218 -99c-104 0 -193 50 -237 134c-44 -89 -121 -134 -228 -134c-106 0 -180 66 -180 159s74 150 197 151h174v32c-1 81 -52 125 -143 125c-55 0 -108 -20 -166 -61l-33 55
c79 52 135 71 215 71c94 0 160 -38 185 -105c43 66 121 105 214 105c127 0 217 -78 236 -206l-407 -139c27 -74 95 -122 178 -122zM693 463c-115 0 -186 -77 -185 -203c0 -5 0 -11 1 -16l342 118c-28 67 -82 101 -158 101zM422 185v60h-164c-90 0 -135 -28 -135 -86
c0 -59 48 -97 121 -97c91 0 155 45 178 123z" />
    <glyph glyph-name="aeacute.ss01" horiz-adv-x="968" 
d="M633 714l-124 -99h-75l120 135zM700 62c65 0 122 27 167 77l46 -43c-55 -65 -129 -99 -218 -99c-104 0 -193 50 -237 134c-44 -89 -121 -134 -228 -134c-106 0 -180 66 -180 159s74 150 197 151h174v32c-1 81 -52 125 -143 125c-55 0 -108 -20 -166 -61l-33 55
c79 52 135 71 215 71c94 0 160 -38 185 -105c43 66 121 105 214 105c127 0 217 -78 236 -206l-407 -139c27 -74 95 -122 178 -122zM693 463c-115 0 -186 -77 -185 -203c0 -5 0 -11 1 -16l342 118c-28 67 -82 101 -158 101zM422 185v60h-164c-90 0 -135 -28 -135 -86
c0 -59 48 -97 121 -97c91 0 155 45 178 123z" />
    <glyph glyph-name="b" unicode="b" horiz-adv-x="676" 
d="M381 529c149 0 253 -110 253 -267c0 -156 -102 -265 -251 -265c-94 0 -166 43 -205 116v-113h-78v742h78v-329c39 73 111 116 203 116zM367 66c110 0 188 83 188 198c0 114 -78 198 -188 198c-111 0 -189 -83 -189 -198c0 -116 78 -198 189 -198z" />
    <glyph glyph-name="c" unicode="c" horiz-adv-x="561" 
d="M463 397c-40 39 -93 62 -157 62c-109 0 -187 -80 -187 -196c0 -117 78 -197 187 -197c69 0 126 24 163 68l45 -46c-47 -57 -120 -91 -211 -91c-153 0 -261 109 -261 266c0 156 109 266 261 266c85 0 155 -29 203 -78z" />
    <glyph glyph-name="cacute" unicode="&#x107;" horiz-adv-x="561" 
d="M361 750l79 -36l-124 -99h-75zM463 397c-40 39 -93 62 -157 62c-109 0 -187 -80 -187 -196c0 -117 78 -197 187 -197c69 0 126 24 163 68l45 -46c-47 -57 -120 -91 -211 -91c-153 0 -261 109 -261 266c0 156 109 266 261 266c85 0 155 -29 203 -78z" />
    <glyph glyph-name="ccaron" unicode="&#x10d;" horiz-adv-x="561" 
d="M147 745h73l72 -94l72 94h73l-104 -135h-82zM463 397c-40 39 -93 62 -157 62c-109 0 -187 -80 -187 -196c0 -117 78 -197 187 -197c69 0 126 24 163 68l45 -46c-47 -57 -120 -91 -211 -91c-153 0 -261 109 -261 266c0 156 109 266 261 266c85 0 155 -29 203 -78z" />
    <glyph glyph-name="ccedilla" unicode="&#xe7;" horiz-adv-x="561" 
d="M514 88c-43 -52 -106 -84 -186 -90l-21 -48c41 -5 71 -32 71 -75c1 -54 -41 -90 -97 -90c-30 0 -61 10 -81 25l17 41c16 -12 39 -20 59 -20c33 0 54 23 53 48c0 23 -18 43 -50 43c-10 0 -24 -2 -33 -3l34 79c-141 10 -238 116 -238 265c0 156 109 266 261 266
c85 0 155 -29 203 -78l-43 -54c-40 39 -93 62 -157 62c-109 0 -187 -80 -187 -196c0 -117 78 -197 187 -197c69 0 126 24 163 68z" />
    <glyph glyph-name="uni1E09" unicode="&#x1e09;" horiz-adv-x="561" 
d="M446 714l-124 -99h-75l120 135zM514 88c-45 -55 -115 -89 -202 -91l-24 -54c41 -5 71 -32 71 -75c1 -54 -41 -90 -97 -90c-30 0 -61 10 -81 25l17 41c16 -12 39 -20 59 -20c33 0 54 23 53 48c0 23 -18 43 -50 43c-10 0 -24 -2 -33 -3l37 87c-132 17 -222 121 -222 264
c0 156 109 266 261 266c85 0 155 -29 203 -78l-43 -54c-40 39 -93 62 -157 62c-109 0 -187 -80 -187 -196c0 -117 78 -197 187 -197c69 0 126 24 163 68z" />
    <glyph glyph-name="ccircumflex" unicode="&#x109;" horiz-adv-x="561" 
d="M256 745h76l102 -129h-68l-72 91l-72 -91h-68zM463 397c-40 39 -93 62 -157 62c-109 0 -187 -80 -187 -196c0 -117 78 -197 187 -197c69 0 126 24 163 68l45 -46c-47 -57 -120 -91 -211 -91c-153 0 -261 109 -261 266c0 156 109 266 261 266c85 0 155 -29 203 -78z" />
    <glyph glyph-name="cdotaccent" unicode="&#x10b;" horiz-adv-x="561" 
d="M294 730c29 0 51 -22 51 -53c0 -30 -22 -53 -51 -53s-51 23 -51 53c0 31 22 53 51 53zM463 397c-40 39 -93 62 -157 62c-109 0 -187 -80 -187 -196c0 -117 78 -197 187 -197c69 0 126 24 163 68l45 -46c-47 -57 -120 -91 -211 -91c-153 0 -261 109 -261 266
c0 156 109 266 261 266c85 0 155 -29 203 -78z" />
    <glyph glyph-name="d" unicode="d" horiz-adv-x="679" 
d="M501 742h78v-742h-78v113c-39 -74 -111 -117 -205 -117c-150 0 -254 111 -254 268s104 266 253 266c94 0 167 -43 206 -118v330zM311 63c111 0 190 83 190 199s-79 200 -190 200c-112 0 -191 -84 -191 -200s79 -199 191 -199z" />
    <glyph glyph-name="eth" unicode="&#xf0;" horiz-adv-x="581" 
d="M373 612c105 -104 167 -233 167 -362c0 -154 -101 -253 -258 -253c-143 0 -236 89 -236 227c0 131 89 217 227 217c82 0 156 -38 188 -97c-25 86 -83 172 -160 245l-145 -46l-13 44l117 38c-38 30 -80 58 -124 80l51 40c54 -27 103 -60 147 -97l126 41l14 -45zM288 67
c103 0 170 61 170 155c0 97 -67 160 -170 160c-102 0 -167 -60 -167 -154c0 -98 65 -161 167 -161z" />
    <glyph glyph-name="dcaron" unicode="&#x10f;" horiz-adv-x="712" 
d="M501 412v330h78v-742h-78v113c-39 -74 -111 -117 -205 -117c-150 0 -254 111 -254 268s104 266 253 266c94 0 167 -43 206 -118zM660 742h74l-20 -193h-54v193zM311 63c111 0 190 83 190 199s-79 200 -190 200c-112 0 -191 -84 -191 -200s79 -199 191 -199z" />
    <glyph glyph-name="dcroat" unicode="&#x111;" horiz-adv-x="678" 
d="M650 680v-49h-71v-631h-78v113c-39 -74 -111 -117 -205 -117c-150 0 -254 111 -254 268s104 266 253 266c94 0 167 -43 206 -118v219h-108v49h108v62h78v-62h71zM311 63c111 0 190 83 190 199s-79 200 -190 200c-112 0 -191 -84 -191 -200s79 -199 191 -199z" />
    <glyph glyph-name="uni1E0D" unicode="&#x1e0d;" horiz-adv-x="679" 
d="M501 742h78v-742h-78v113c-39 -74 -111 -117 -205 -117c-150 0 -254 111 -254 268s104 266 253 266c94 0 167 -43 206 -118v330zM311 63c111 0 190 83 190 199s-79 200 -190 200c-112 0 -191 -84 -191 -200s79 -199 191 -199zM347 -56c29 0 51 -22 51 -53
c0 -30 -22 -53 -51 -53s-51 23 -51 53c0 31 22 53 51 53z" />
    <glyph glyph-name="uni1E0F" unicode="&#x1e0f;" horiz-adv-x="679" 
d="M501 742h78v-742h-78v113c-39 -74 -111 -117 -205 -117c-150 0 -254 111 -254 268s104 266 253 266c94 0 167 -43 206 -118v330zM311 63c111 0 190 83 190 199s-79 200 -190 200c-112 0 -191 -84 -191 -200s79 -199 191 -199zM226 -122v59h241v-59h-241z" />
    <glyph glyph-name="uni01C6" unicode="&#x1c6;" horiz-adv-x="1206" 
d="M990 610h-82l-104 135h73l72 -94l72 94h73zM501 412v330h78v-742h-78v113c-39 -74 -111 -117 -205 -117c-150 0 -254 111 -254 268s104 266 253 266c94 0 167 -43 206 -118zM825 65h338v-66l-432 1v58l145 177h-107v64h159l132 161l-320 1v65l415 -1v-57l-142 -173h106
v-64h-158zM311 63c111 0 190 83 190 199s-79 200 -190 200c-112 0 -191 -84 -191 -200s79 -199 191 -199z" />
    <glyph glyph-name="uni01C6.ss01" horiz-adv-x="1206" 
d="M990 610h-82l-104 135h73l72 -94l72 94h73zM501 412v330h78v-742h-78v113c-39 -74 -111 -117 -205 -117c-150 0 -254 111 -254 268s104 266 253 266c94 0 167 -43 206 -118zM825 65h338v-66l-432 1v58l145 177h-107v64h159l132 161l-320 1v65l415 -1v-57l-142 -173h106
v-64h-158zM311 63c111 0 190 83 190 199s-79 200 -190 200c-112 0 -191 -84 -191 -200s79 -199 191 -199z" />
    <glyph glyph-name="e" unicode="e" horiz-adv-x="576" 
d="M314 62c65 0 122 28 168 84l47 -42c-58 -72 -132 -107 -220 -107c-157 0 -267 109 -267 267c0 153 104 264 260 265c130 1 224 -77 241 -205l-409 -139c27 -76 94 -123 180 -123zM306 463c-111 0 -186 -74 -186 -196c0 -8 0 -15 1 -23l344 119c-27 67 -84 100 -159 100z
" />
    <glyph glyph-name="eacute" unicode="&#xe9;" horiz-adv-x="576" 
d="M446 714l-124 -99h-75l120 135zM314 62c65 0 122 28 168 84l47 -42c-58 -72 -132 -107 -220 -107c-157 0 -267 109 -267 267c0 153 104 264 260 265c130 1 224 -77 241 -205l-409 -139c27 -76 94 -123 180 -123zM306 463c-111 0 -186 -74 -186 -196c0 -8 0 -15 1 -23
l344 119c-27 67 -84 100 -159 100z" />
    <glyph glyph-name="ebreve" unicode="&#x115;" horiz-adv-x="576" 
d="M300 611c-71 0 -124 53 -127 129h55c2 -42 32 -73 72 -73s70 31 72 73h55c-3 -76 -56 -129 -127 -129zM314 62c65 0 122 28 168 84l47 -42c-58 -72 -132 -107 -220 -107c-157 0 -267 109 -267 267c0 153 104 264 260 265c130 1 224 -77 241 -205l-409 -139
c27 -76 94 -123 180 -123zM306 463c-111 0 -186 -74 -186 -196c0 -8 0 -15 1 -23l344 119c-27 67 -84 100 -159 100z" />
    <glyph glyph-name="ecaron" unicode="&#x11b;" horiz-adv-x="576" 
d="M339 610h-82l-104 135h73l72 -94l72 94h73zM314 62c65 0 122 28 168 84l47 -42c-58 -72 -132 -107 -220 -107c-157 0 -267 109 -267 267c0 153 104 264 260 265c130 1 224 -77 241 -205l-409 -139c27 -76 94 -123 180 -123zM306 463c-111 0 -186 -74 -186 -196
c0 -8 0 -15 1 -23l344 119c-27 67 -84 100 -159 100z" />
    <glyph glyph-name="uni1E1D" unicode="&#x1e1d;" horiz-adv-x="576" 
d="M300 612c-71 0 -124 53 -127 129h55c2 -42 32 -73 72 -73s70 31 72 73h55c-3 -76 -56 -129 -127 -129zM314 62c65 0 122 28 168 84l47 -42c-55 -68 -124 -103 -206 -107l-24 -54c41 -5 71 -32 71 -75c1 -54 -41 -90 -97 -90c-30 0 -61 10 -81 25l17 41
c16 -12 39 -20 59 -20c33 0 54 23 53 48c0 23 -18 43 -50 43c-10 0 -24 -2 -33 -3l37 87c-139 14 -233 119 -233 265c0 153 104 264 260 265c130 1 224 -77 241 -205l-409 -139c27 -76 94 -123 180 -123zM306 463c-111 0 -186 -74 -186 -196c0 -8 0 -15 1 -23l344 119
c-27 67 -84 100 -159 100z" />
    <glyph glyph-name="uni1E1D.ss01" horiz-adv-x="576" 
d="M300 612c-71 0 -124 53 -127 129h55c2 -42 32 -73 72 -73s70 31 72 73h55c-3 -76 -56 -129 -127 -129zM314 62c65 0 122 28 168 84l47 -42c-55 -68 -124 -103 -206 -107l-24 -54c41 -5 71 -32 71 -75c1 -54 -41 -90 -97 -90c-30 0 -61 10 -81 25l17 41
c16 -12 39 -20 59 -20c33 0 54 23 53 48c0 23 -18 43 -50 43c-10 0 -24 -2 -33 -3l37 87c-139 14 -233 119 -233 265c0 153 104 264 260 265c130 1 224 -77 241 -205l-409 -139c27 -76 94 -123 180 -123zM306 463c-111 0 -186 -74 -186 -196c0 -8 0 -15 1 -23l344 119
c-27 67 -84 100 -159 100z" />
    <glyph glyph-name="ecircumflex" unicode="&#xea;" horiz-adv-x="576" 
d="M300 707l-72 -91h-68l102 129h76l102 -129h-68zM314 62c65 0 122 28 168 84l47 -42c-58 -72 -132 -107 -220 -107c-157 0 -267 109 -267 267c0 153 104 264 260 265c130 1 224 -77 241 -205l-409 -139c27 -76 94 -123 180 -123zM306 463c-111 0 -186 -74 -186 -196
c0 -8 0 -15 1 -23l344 119c-27 67 -84 100 -159 100z" />
    <glyph glyph-name="uni1EBF" unicode="&#x1ebf;" horiz-adv-x="576" 
d="M586 816l-125 -99h-64l120 135zM300 709l-72 -91h-68l102 129h76l102 -129h-68zM302 529c130 1 224 -77 241 -205l-409 -139c27 -76 94 -123 180 -123c65 0 122 28 168 84l47 -42c-58 -72 -132 -107 -220 -107c-157 0 -267 109 -267 267c0 153 104 264 260 265zM121 244
l344 119c-27 67 -84 100 -159 100c-111 0 -186 -74 -186 -196c0 -8 0 -15 1 -23z" />
    <glyph glyph-name="uni1EBF.ss01" horiz-adv-x="576" 
d="M586 816l-125 -99h-64l120 135zM300 709l-72 -91h-68l102 129h76l102 -129h-68zM302 529c130 1 224 -77 241 -205l-409 -139c27 -76 94 -123 180 -123c65 0 122 28 168 84l47 -42c-58 -72 -132 -107 -220 -107c-157 0 -267 109 -267 267c0 153 104 264 260 265zM121 244
l344 119c-27 67 -84 100 -159 100c-111 0 -186 -74 -186 -196c0 -8 0 -15 1 -23z" />
    <glyph glyph-name="uni1EC7" unicode="&#x1ec7;" horiz-adv-x="576" 
d="M300 709l-72 -91h-68l102 129h76l102 -129h-68zM314 62c65 0 122 28 168 84l47 -42c-58 -72 -132 -107 -220 -107c-157 0 -267 109 -267 267c0 153 104 264 260 265c130 1 224 -77 241 -205l-409 -139c27 -76 94 -123 180 -123zM306 463c-111 0 -186 -74 -186 -196
c0 -8 0 -15 1 -23l344 119c-27 67 -84 100 -159 100zM300 -55c29 0 51 -23 51 -53s-22 -54 -51 -54s-51 24 -51 54s22 53 51 53z" />
    <glyph glyph-name="uni1EC7.ss01" horiz-adv-x="576" 
d="M300 709l-72 -91h-68l102 129h76l102 -129h-68zM314 62c65 0 122 28 168 84l47 -42c-58 -72 -132 -107 -220 -107c-157 0 -267 109 -267 267c0 153 104 264 260 265c130 1 224 -77 241 -205l-409 -139c27 -76 94 -123 180 -123zM306 463c-111 0 -186 -74 -186 -196
c0 -8 0 -15 1 -23l344 119c-27 67 -84 100 -159 100zM300 -55c29 0 51 -23 51 -53s-22 -54 -51 -54s-51 24 -51 54s22 53 51 53z" />
    <glyph glyph-name="uni1EC1" unicode="&#x1ec1;" horiz-adv-x="576" 
d="M521 703h-64l-124 99l68 36zM300 709l-72 -91h-68l102 129h76l102 -129h-68zM314 62c65 0 122 28 168 84l47 -42c-58 -72 -132 -107 -220 -107c-157 0 -267 109 -267 267c0 153 104 264 260 265c130 1 224 -77 241 -205l-409 -139c27 -76 94 -123 180 -123zM306 463
c-111 0 -186 -74 -186 -196c0 -8 0 -15 1 -23l344 119c-27 67 -84 100 -159 100z" />
    <glyph glyph-name="uni1EC1.ss01" horiz-adv-x="576" 
d="M521 703h-64l-124 99l68 36zM300 709l-72 -91h-68l102 129h76l102 -129h-68zM314 62c65 0 122 28 168 84l47 -42c-58 -72 -132 -107 -220 -107c-157 0 -267 109 -267 267c0 153 104 264 260 265c130 1 224 -77 241 -205l-409 -139c27 -76 94 -123 180 -123zM306 463
c-111 0 -186 -74 -186 -196c0 -8 0 -15 1 -23l344 119c-27 67 -84 100 -159 100z" />
    <glyph glyph-name="uni1EC3" unicode="&#x1ec3;" horiz-adv-x="576" 
d="M413 842c-29 0 -47 -17 -50 -44l-41 15c7 45 43 73 92 73c52 0 86 -35 86 -82c0 -39 -20 -66 -55 -93l-41 14c33 26 53 48 53 77c0 22 -15 40 -44 40zM300 709l-72 -91h-68l102 129h76l102 -129h-68zM314 62c65 0 122 28 168 84l47 -42c-58 -72 -132 -107 -220 -107
c-157 0 -267 109 -267 267c0 153 104 264 260 265c130 1 224 -77 241 -205l-409 -139c27 -76 94 -123 180 -123zM306 463c-111 0 -186 -74 -186 -196c0 -8 0 -15 1 -23l344 119c-27 67 -84 100 -159 100z" />
    <glyph glyph-name="uni1EC3.ss01" horiz-adv-x="576" 
d="M413 842c-29 0 -47 -17 -50 -44l-41 15c7 45 43 73 92 73c52 0 86 -35 86 -82c0 -39 -20 -66 -55 -93l-41 14c33 26 53 48 53 77c0 22 -15 40 -44 40zM300 709l-72 -91h-68l102 129h76l102 -129h-68zM314 62c65 0 122 28 168 84l47 -42c-58 -72 -132 -107 -220 -107
c-157 0 -267 109 -267 267c0 153 104 264 260 265c130 1 224 -77 241 -205l-409 -139c27 -76 94 -123 180 -123zM306 463c-111 0 -186 -74 -186 -196c0 -8 0 -15 1 -23l344 119c-27 67 -84 100 -159 100z" />
    <glyph glyph-name="uni1EC5" unicode="&#x1ec5;" horiz-adv-x="576" 
d="M242 821c-27 0 -42 -19 -42 -53h-53c0 73 29 112 83 112c56 0 82 -61 122 -61c27 0 42 19 42 53h53c0 -73 -29 -111 -83 -111c-59 0 -82 60 -122 60zM262 747h76l102 -129h-68l-72 91l-72 -91h-68zM314 62c65 0 122 28 168 84l47 -42c-58 -72 -132 -107 -220 -107
c-157 0 -267 109 -267 267c0 153 104 264 260 265c130 1 224 -77 241 -205l-409 -139c27 -76 94 -123 180 -123zM306 463c-111 0 -186 -74 -186 -196c0 -8 0 -15 1 -23l344 119c-27 67 -84 100 -159 100z" />
    <glyph glyph-name="uni1EC5.ss01" horiz-adv-x="576" 
d="M242 821c-27 0 -42 -19 -42 -53h-53c0 73 29 112 83 112c56 0 82 -61 122 -61c27 0 42 19 42 53h53c0 -73 -29 -111 -83 -111c-59 0 -82 60 -122 60zM262 747h76l102 -129h-68l-72 91l-72 -91h-68zM314 62c65 0 122 28 168 84l47 -42c-58 -72 -132 -107 -220 -107
c-157 0 -267 109 -267 267c0 153 104 264 260 265c130 1 224 -77 241 -205l-409 -139c27 -76 94 -123 180 -123zM306 463c-111 0 -186 -74 -186 -196c0 -8 0 -15 1 -23l344 119c-27 67 -84 100 -159 100z" />
    <glyph glyph-name="uni0205" unicode="&#x205;" horiz-adv-x="576" 
d="M268 615h-65l-93 106l67 33zM415 615h-65l-93 106l67 33zM314 62c65 0 122 28 168 84l47 -42c-58 -72 -132 -107 -220 -107c-157 0 -267 109 -267 267c0 153 104 264 260 265c130 1 224 -77 241 -205l-409 -139c27 -76 94 -123 180 -123zM306 463
c-111 0 -186 -74 -186 -196c0 -8 0 -15 1 -23l344 119c-27 67 -84 100 -159 100z" />
    <glyph glyph-name="uni0205.ss01" horiz-adv-x="576" 
d="M268 615h-65l-93 106l67 33zM415 615h-65l-93 106l67 33zM314 62c65 0 122 28 168 84l47 -42c-58 -72 -132 -107 -220 -107c-157 0 -267 109 -267 267c0 153 104 264 260 265c130 1 224 -77 241 -205l-409 -139c27 -76 94 -123 180 -123zM306 463
c-111 0 -186 -74 -186 -196c0 -8 0 -15 1 -23l344 119c-27 67 -84 100 -159 100z" />
    <glyph glyph-name="edieresis" unicode="&#xeb;" horiz-adv-x="576" 
d="M217 628c-27 0 -47 22 -47 49c0 29 20 50 47 50s48 -21 48 -50c0 -27 -21 -49 -48 -49zM384 628c-27 0 -48 22 -48 49c0 29 21 50 48 50c26 0 47 -21 47 -50c0 -27 -21 -49 -47 -49zM314 62c65 0 122 28 168 84l47 -42c-58 -72 -132 -107 -220 -107
c-157 0 -267 109 -267 267c0 153 104 264 260 265c130 1 224 -77 241 -205l-409 -139c27 -76 94 -123 180 -123zM306 463c-111 0 -186 -74 -186 -196c0 -8 0 -15 1 -23l344 119c-27 67 -84 100 -159 100z" />
    <glyph glyph-name="edotaccent" unicode="&#x117;" horiz-adv-x="576" 
d="M300 624c-29 0 -51 23 -51 53c0 31 22 53 51 53s51 -22 51 -53c0 -30 -22 -53 -51 -53zM314 62c65 0 122 28 168 84l47 -42c-58 -72 -132 -107 -220 -107c-157 0 -267 109 -267 267c0 153 104 264 260 265c130 1 224 -77 241 -205l-409 -139c27 -76 94 -123 180 -123z
M306 463c-111 0 -186 -74 -186 -196c0 -8 0 -15 1 -23l344 119c-27 67 -84 100 -159 100z" />
    <glyph glyph-name="uni1EB9" unicode="&#x1eb9;" horiz-adv-x="576" 
d="M314 62c65 0 122 28 168 84l47 -42c-58 -72 -132 -107 -220 -107c-157 0 -267 109 -267 267c0 153 104 264 260 265c130 1 224 -77 241 -205l-409 -139c27 -76 94 -123 180 -123zM306 463c-111 0 -186 -74 -186 -196c0 -8 0 -15 1 -23l344 119c-27 67 -84 100 -159 100z
M300 -55c29 0 51 -23 51 -53s-22 -54 -51 -54s-51 24 -51 54s22 53 51 53z" />
    <glyph glyph-name="uni1EB9.ss01" horiz-adv-x="576" 
d="M314 62c65 0 122 28 168 84l47 -42c-58 -72 -132 -107 -220 -107c-157 0 -267 109 -267 267c0 153 104 264 260 265c130 1 224 -77 241 -205l-409 -139c27 -76 94 -123 180 -123zM306 463c-111 0 -186 -74 -186 -196c0 -8 0 -15 1 -23l344 119c-27 67 -84 100 -159 100z
M300 -55c29 0 51 -23 51 -53s-22 -54 -51 -54s-51 24 -51 54s22 53 51 53z" />
    <glyph glyph-name="egrave" unicode="&#xe8;" horiz-adv-x="576" 
d="M350 615h-75l-125 99l80 36zM314 62c65 0 122 28 168 84l47 -42c-58 -72 -132 -107 -220 -107c-157 0 -267 109 -267 267c0 153 104 264 260 265c130 1 224 -77 241 -205l-409 -139c27 -76 94 -123 180 -123zM306 463c-111 0 -186 -74 -186 -196c0 -8 0 -15 1 -23
l344 119c-27 67 -84 100 -159 100z" />
    <glyph glyph-name="uni1EBB" unicode="&#x1ebb;" horiz-adv-x="576" 
d="M298 711c-29 0 -47 -17 -50 -44l-41 15c7 45 43 73 91 73c53 0 87 -35 87 -82c0 -39 -20 -66 -55 -93l-41 14c33 26 53 48 53 77c0 22 -15 40 -44 40zM314 62c65 0 122 28 168 84l47 -42c-58 -72 -132 -107 -220 -107c-157 0 -267 109 -267 267c0 153 104 264 260 265
c130 1 224 -77 241 -205l-409 -139c27 -76 94 -123 180 -123zM306 463c-111 0 -186 -74 -186 -196c0 -8 0 -15 1 -23l344 119c-27 67 -84 100 -159 100z" />
    <glyph glyph-name="uni1EBB.ss01" horiz-adv-x="576" 
d="M298 711c-29 0 -47 -17 -50 -44l-41 15c7 45 43 73 91 73c53 0 87 -35 87 -82c0 -39 -20 -66 -55 -93l-41 14c33 26 53 48 53 77c0 22 -15 40 -44 40zM314 62c65 0 122 28 168 84l47 -42c-58 -72 -132 -107 -220 -107c-157 0 -267 109 -267 267c0 153 104 264 260 265
c130 1 224 -77 241 -205l-409 -139c27 -76 94 -123 180 -123zM306 463c-111 0 -186 -74 -186 -196c0 -8 0 -15 1 -23l344 119c-27 67 -84 100 -159 100z" />
    <glyph glyph-name="uni0207" unicode="&#x207;" horiz-adv-x="576" 
d="M300 685c-40 0 -70 -31 -72 -73h-55c3 76 56 129 127 129s124 -53 127 -129h-55c-2 42 -32 73 -72 73zM314 62c65 0 122 28 168 84l47 -42c-58 -72 -132 -107 -220 -107c-157 0 -267 109 -267 267c0 153 104 264 260 265c130 1 224 -77 241 -205l-409 -139
c27 -76 94 -123 180 -123zM306 463c-111 0 -186 -74 -186 -196c0 -8 0 -15 1 -23l344 119c-27 67 -84 100 -159 100z" />
    <glyph glyph-name="uni0207.ss01" horiz-adv-x="576" 
d="M300 685c-40 0 -70 -31 -72 -73h-55c3 76 56 129 127 129s124 -53 127 -129h-55c-2 42 -32 73 -72 73zM314 62c65 0 122 28 168 84l47 -42c-58 -72 -132 -107 -220 -107c-157 0 -267 109 -267 267c0 153 104 264 260 265c130 1 224 -77 241 -205l-409 -139
c27 -76 94 -123 180 -123zM306 463c-111 0 -186 -74 -186 -196c0 -8 0 -15 1 -23l344 119c-27 67 -84 100 -159 100z" />
    <glyph glyph-name="emacron" unicode="&#x113;" horiz-adv-x="576" 
d="M421 706v-59h-241v59h241zM314 62c65 0 122 28 168 84l47 -42c-58 -72 -132 -107 -220 -107c-157 0 -267 109 -267 267c0 153 104 264 260 265c130 1 224 -77 241 -205l-409 -139c27 -76 94 -123 180 -123zM306 463c-111 0 -186 -74 -186 -196c0 -8 0 -15 1 -23l344 119
c-27 67 -84 100 -159 100z" />
    <glyph glyph-name="uni1E17" unicode="&#x1e17;" horiz-adv-x="576" 
d="M452 856l-124 -99h-75l120 135zM420 686v-59h-241v59h241zM314 62c65 0 122 28 168 84l47 -42c-58 -72 -132 -107 -220 -107c-157 0 -267 109 -267 267c0 153 104 264 260 265c130 1 224 -77 241 -205l-409 -139c27 -76 94 -123 180 -123zM306 463
c-111 0 -186 -74 -186 -196c0 -8 0 -15 1 -23l344 119c-27 67 -84 100 -159 100z" />
    <glyph glyph-name="uni1E17.ss01" horiz-adv-x="576" 
d="M452 856l-124 -99h-75l120 135zM420 686v-59h-241v59h241zM314 62c65 0 122 28 168 84l47 -42c-58 -72 -132 -107 -220 -107c-157 0 -267 109 -267 267c0 153 104 264 260 265c130 1 224 -77 241 -205l-409 -139c27 -76 94 -123 180 -123zM306 463
c-111 0 -186 -74 -186 -196c0 -8 0 -15 1 -23l344 119c-27 67 -84 100 -159 100z" />
    <glyph glyph-name="uni1E15" unicode="&#x1e15;" horiz-adv-x="576" 
d="M347 757h-75l-125 99l80 36zM179 627v59h241v-59h-241zM314 62c65 0 122 28 168 84l47 -42c-58 -72 -132 -107 -220 -107c-157 0 -267 109 -267 267c0 153 104 264 260 265c130 1 224 -77 241 -205l-409 -139c27 -76 94 -123 180 -123zM306 463
c-111 0 -186 -74 -186 -196c0 -8 0 -15 1 -23l344 119c-27 67 -84 100 -159 100z" />
    <glyph glyph-name="uni1E15.ss01" horiz-adv-x="576" 
d="M347 757h-75l-125 99l80 36zM179 627v59h241v-59h-241zM314 62c65 0 122 28 168 84l47 -42c-58 -72 -132 -107 -220 -107c-157 0 -267 109 -267 267c0 153 104 264 260 265c130 1 224 -77 241 -205l-409 -139c27 -76 94 -123 180 -123zM306 463
c-111 0 -186 -74 -186 -196c0 -8 0 -15 1 -23l344 119c-27 67 -84 100 -159 100z" />
    <glyph glyph-name="eogonek" unicode="&#x119;" horiz-adv-x="596" 
d="M455 -153c18 0 36 13 52 33l25 -30c-21 -30 -53 -50 -85 -50c-38 0 -74 24 -74 74c0 45 20 97 68 163c-38 -25 -83 -40 -132 -40c-157 0 -267 109 -267 267c0 153 104 264 260 265c130 1 224 -77 241 -205l-409 -139c27 -76 94 -123 180 -123c64 0 123 24 163 68l43 -46
c-67 -83 -101 -150 -101 -199c0 -24 15 -38 36 -38zM306 463c-111 0 -186 -74 -186 -196c0 -8 0 -15 1 -23l344 119c-27 67 -84 100 -159 100z" />
    <glyph glyph-name="uni1EBD" unicode="&#x1ebd;" horiz-adv-x="576" 
d="M246 685c-28 0 -43 -19 -43 -53h-52c0 73 29 112 83 112c55 0 82 -61 121 -61c28 0 43 19 43 53h52c0 -73 -29 -112 -83 -112c-58 0 -81 61 -121 61zM314 62c65 0 122 28 168 84l47 -42c-58 -72 -132 -107 -220 -107c-157 0 -267 109 -267 267c0 153 104 264 260 265
c130 1 224 -77 241 -205l-409 -139c27 -76 94 -123 180 -123zM306 463c-111 0 -186 -74 -186 -196c0 -8 0 -15 1 -23l344 119c-27 67 -84 100 -159 100z" />
    <glyph glyph-name="uni1EBD.ss01" horiz-adv-x="576" 
d="M246 685c-28 0 -43 -19 -43 -53h-52c0 73 29 112 83 112c55 0 82 -61 121 -61c28 0 43 19 43 53h52c0 -73 -29 -112 -83 -112c-58 0 -81 61 -121 61zM314 62c65 0 122 28 168 84l47 -42c-58 -72 -132 -107 -220 -107c-157 0 -267 109 -267 267c0 153 104 264 260 265
c130 1 224 -77 241 -205l-409 -139c27 -76 94 -123 180 -123zM306 463c-111 0 -186 -74 -186 -196c0 -8 0 -15 1 -23l344 119c-27 67 -84 100 -159 100z" />
    <glyph glyph-name="uni0259" unicode="&#x259;" horiz-adv-x="576" 
d="M267 529c157 0 267 -109 267 -267c0 -153 -104 -264 -260 -265c-130 -1 -224 77 -241 205l409 139c-27 76 -94 123 -180 123c-65 0 -122 -28 -168 -84l-47 42c58 72 132 107 220 107zM270 63c111 0 186 74 186 196c0 8 0 15 -1 23l-344 -119c27 -67 84 -100 159 -100z
" />
    <glyph glyph-name="uni0259.ss01" horiz-adv-x="576" 
d="M267 529c157 0 267 -109 267 -267c0 -153 -104 -264 -260 -265c-130 -1 -224 77 -241 205l409 139c-27 76 -94 123 -180 123c-65 0 -122 -28 -168 -84l-47 42c58 72 132 107 220 107zM270 63c111 0 186 74 186 196c0 8 0 15 -1 23l-344 -119c27 -67 84 -100 159 -100z
" />
    <glyph glyph-name="f" unicode="f" horiz-adv-x="296" 
d="M253 679c-51 0 -93 -35 -93 -97v-72h150v-61h-150v-449h-77v573c0 114 81 176 168 176c41 -1 82 -13 113 -37l-31 -61c-24 17 -53 27 -80 28z" />
    <glyph glyph-name="g" unicode="g" horiz-adv-x="636" 
d="M476 526h78v-471c0 -154 -105 -251 -265 -251c-83 1 -152 28 -216 77l36 57c52 -43 107 -66 177 -67c115 0 190 71 190 182v80c-37 -70 -105 -110 -194 -110c-142 0 -240 105 -240 254c0 148 97 251 238 252c90 1 158 -40 196 -110v107zM296 87c105 0 180 79 180 188
c0 110 -75 189 -180 189c-106 0 -180 -79 -181 -189c1 -109 75 -188 181 -188z" />
    <glyph glyph-name="gbreve" unicode="&#x11f;" horiz-adv-x="636" 
d="M318 611c-71 0 -124 53 -127 129h55c2 -42 32 -73 72 -73s70 31 72 73h55c-3 -76 -56 -129 -127 -129zM476 526h78v-471c0 -154 -105 -251 -265 -251c-83 1 -152 28 -216 77l36 57c52 -43 107 -66 177 -67c115 0 190 71 190 182v80c-37 -70 -105 -110 -194 -110
c-142 0 -240 105 -240 254c0 148 97 251 238 252c90 1 158 -40 196 -110v107zM296 87c105 0 180 79 180 188c0 110 -75 189 -180 189c-106 0 -180 -79 -181 -189c1 -109 75 -188 181 -188z" />
    <glyph glyph-name="gcaron" unicode="&#x1e7;" horiz-adv-x="636" 
d="M359 612h-82l-104 135h73l72 -94l72 94h73zM476 526h78v-471c0 -154 -105 -251 -265 -251c-83 1 -152 28 -216 77l36 57c52 -43 107 -66 177 -67c115 0 190 71 190 182v80c-37 -70 -105 -110 -194 -110c-142 0 -240 105 -240 254c0 148 97 251 238 252
c90 1 158 -40 196 -110v107zM296 87c105 0 180 79 180 188c0 110 -75 189 -180 189c-106 0 -180 -79 -181 -189c1 -109 75 -188 181 -188z" />
    <glyph glyph-name="gcircumflex" unicode="&#x11d;" horiz-adv-x="636" 
d="M318 707l-72 -91h-68l102 129h76l102 -129h-68zM476 526h78v-471c0 -154 -105 -251 -265 -251c-83 1 -152 28 -216 77l36 57c52 -43 107 -66 177 -67c115 0 190 71 190 182v80c-37 -70 -105 -110 -194 -110c-142 0 -240 105 -240 254c0 148 97 251 238 252
c90 1 158 -40 196 -110v107zM296 87c105 0 180 79 180 188c0 110 -75 189 -180 189c-106 0 -180 -79 -181 -189c1 -109 75 -188 181 -188z" />
    <glyph glyph-name="gcommaaccent" unicode="&#x123;" horiz-adv-x="636" 
d="M318 580c-25 0 -47 19 -47 50c0 15 5 28 14 42l48 71h44l-33 -72c16 -9 23 -25 23 -42c0 -28 -21 -49 -49 -49zM476 526h78v-471c0 -154 -105 -251 -265 -251c-83 1 -152 28 -216 77l36 57c52 -43 107 -66 177 -67c115 0 190 71 190 182v80c-37 -70 -105 -110 -194 -110
c-142 0 -240 105 -240 254c0 148 97 251 238 252c90 1 158 -40 196 -110v107zM296 87c105 0 180 79 180 188c0 110 -75 189 -180 189c-106 0 -180 -79 -181 -189c1 -109 75 -188 181 -188z" />
    <glyph glyph-name="gdotaccent" unicode="&#x121;" horiz-adv-x="636" 
d="M318 624c-29 0 -51 23 -51 53c0 31 22 53 51 53s51 -22 51 -53c0 -30 -22 -53 -51 -53zM476 526h78v-471c0 -154 -105 -251 -265 -251c-83 1 -152 28 -216 77l36 57c52 -43 107 -66 177 -67c115 0 190 71 190 182v80c-37 -70 -105 -110 -194 -110
c-142 0 -240 105 -240 254c0 148 97 251 238 252c90 1 158 -40 196 -110v107zM296 87c105 0 180 79 180 188c0 110 -75 189 -180 189c-106 0 -180 -79 -181 -189c1 -109 75 -188 181 -188z" />
    <glyph glyph-name="uni1E21" unicode="&#x1e21;" horiz-adv-x="636" 
d="M438 686v-59h-241v59h241zM476 526h78v-471c0 -154 -105 -251 -265 -251c-83 1 -152 28 -216 77l36 57c52 -43 107 -66 177 -67c115 0 190 71 190 182v80c-37 -70 -105 -110 -194 -110c-142 0 -240 105 -240 254c0 148 97 251 238 252c90 1 158 -40 196 -110v107zM296 87
c105 0 180 79 180 188c0 110 -75 189 -180 189c-106 0 -180 -79 -181 -189c1 -109 75 -188 181 -188z" />
    <glyph glyph-name="h" unicode="h" horiz-adv-x="662" 
d="M383 529c126 0 200 -77 200 -205v-324h-78v304c0 94 -56 150 -149 150c-112 -1 -178 -81 -178 -196v-258h-78v742h78v-334c36 82 108 120 205 121z" />
    <glyph glyph-name="hbar" unicode="&#x127;" horiz-adv-x="662" 
d="M383 529c126 0 200 -77 200 -205v-324h-78v304c0 94 -56 150 -149 150c-112 -1 -178 -81 -178 -196v-258h-78v599h-87v50h87v93h78v-93h156v-50h-156v-191c36 82 108 120 205 121z" />
    <glyph glyph-name="uni1E2B" unicode="&#x1e2b;" horiz-adv-x="662" 
d="M383 529c126 0 200 -77 200 -205v-324h-78v304c0 94 -56 150 -149 150c-112 -1 -178 -81 -178 -196v-258h-78v742h78v-334c36 82 108 120 205 121zM342 -123c40 0 70 31 72 73h55c-3 -76 -56 -129 -127 -129s-124 53 -127 129h55c2 -42 32 -73 72 -73z" />
    <glyph glyph-name="hcircumflex" unicode="&#x125;" horiz-adv-x="662" 
d="M210 832l-72 91l-72 -91h-68l102 129h76l102 -129h-68zM383 529c126 0 200 -77 200 -205v-324h-78v304c0 94 -56 150 -149 150c-112 -1 -178 -81 -178 -196v-258h-78v742h78v-334c36 82 108 120 205 121z" />
    <glyph glyph-name="uni1E25" unicode="&#x1e25;" horiz-adv-x="662" 
d="M383 529c126 0 200 -77 200 -205v-324h-78v304c0 94 -56 150 -149 150c-112 -1 -178 -81 -178 -196v-258h-78v742h78v-334c36 82 108 120 205 121zM342 -56c29 0 51 -22 51 -53c0 -30 -22 -53 -51 -53s-51 23 -51 53c0 31 22 53 51 53z" />
    <glyph glyph-name="i" unicode="i" horiz-adv-x="267" 
d="M133 730c29 0 51 -22 51 -53c0 -30 -22 -53 -51 -53s-51 23 -51 53c0 31 22 53 51 53zM95 526h77v-526h-77v526z" />
    <glyph glyph-name="dotlessi" unicode="&#x131;" horiz-adv-x="267" 
d="M95 526h77v-526h-77v526z" />
    <glyph glyph-name="iacute" unicode="&#xed;" horiz-adv-x="267" 
d="M200 750l79 -36l-124 -99h-75zM95 526h77v-526h-77v526z" />
    <glyph glyph-name="iacute_j.loclNLD" horiz-adv-x="531" 
d="M200 750l79 -36l-124 -99h-75zM465 750l79 -36l-124 -99h-75zM95 526h77v-526h-77v526zM437 -26c0 -111 -53 -171 -144 -170c-44 1 -84 13 -118 36l23 59c24 -18 51 -27 80 -28c53 -1 81 38 81 113v542h78v-552z" />
    <glyph glyph-name="ibreve" unicode="&#x12d;" horiz-adv-x="267" 
d="M61 740c2 -42 32 -73 72 -73s70 31 72 73h55c-3 -76 -56 -129 -127 -129s-124 53 -127 129h55zM95 526h77v-526h-77v526z" />
    <glyph glyph-name="icircumflex" unicode="&#xee;" horiz-adv-x="267" 
d="M95 745h76l102 -129h-68l-72 91l-72 -91h-68zM95 526h77v-526h-77v526z" />
    <glyph glyph-name="uni0209" unicode="&#x209;" horiz-adv-x="267" 
d="M10 754l91 -139h-65l-93 106zM157 754l91 -139h-65l-93 106zM95 526h77v-526h-77v526z" />
    <glyph glyph-name="idieresis" unicode="&#xef;" horiz-adv-x="267" 
d="M50 727c27 0 48 -21 48 -50c0 -27 -21 -49 -48 -49s-47 22 -47 49c0 29 20 50 47 50zM217 727c26 0 47 -21 47 -50c0 -27 -21 -49 -47 -49c-27 0 -48 22 -48 49c0 29 21 50 48 50zM95 526h77v-526h-77v526z" />
    <glyph glyph-name="uni1E2F" unicode="&#x1e2f;" horiz-adv-x="267" 
d="M206 915l79 -36l-124 -99h-75zM49 727c27 0 48 -21 48 -50c0 -27 -21 -49 -48 -49s-47 22 -47 49c0 29 20 50 47 50zM216 727c26 0 47 -21 47 -50c0 -27 -21 -49 -47 -49c-27 0 -48 22 -48 49c0 29 21 50 48 50zM95 526h77v-526h-77v526z" />
    <glyph glyph-name="i.loclTRK" horiz-adv-x="267" 
d="M133 730c29 0 51 -22 51 -53c0 -30 -22 -53 -51 -53s-51 23 -51 53c0 31 22 53 51 53zM95 526h77v-526h-77v526z" />
    <glyph glyph-name="uni1ECB" unicode="&#x1ecb;" horiz-adv-x="267" 
d="M133 730c29 0 51 -22 51 -53c0 -30 -22 -53 -51 -53s-51 23 -51 53c0 31 22 53 51 53zM95 526h77v-526h-77v526zM133 -55c29 0 51 -23 51 -53s-22 -54 -51 -54s-51 24 -51 54s22 53 51 53z" />
    <glyph glyph-name="igrave" unicode="&#xec;" horiz-adv-x="267" 
d="M63 750l120 -135h-75l-125 99zM95 526h77v-526h-77v526z" />
    <glyph glyph-name="uni1EC9" unicode="&#x1ec9;" horiz-adv-x="267" 
d="M40 682c7 45 43 73 91 73c53 0 87 -35 87 -82c0 -39 -20 -66 -55 -93l-41 14c33 26 53 48 53 77c0 22 -15 40 -44 40s-47 -17 -50 -44zM95 526h77v-526h-77v526z" />
    <glyph glyph-name="uni020B" unicode="&#x20b;" horiz-adv-x="267" 
d="M61 612h-55c3 76 56 129 127 129s124 -53 127 -129h-55c-2 42 -32 73 -72 73s-70 -31 -72 -73zM95 526h77v-526h-77v526z" />
    <glyph glyph-name="ij" unicode="&#x133;" horiz-adv-x="534" 
d="M398 731c31 0 53 -23 53 -54c0 -30 -22 -53 -53 -53c-30 0 -53 23 -53 53c0 31 23 54 53 54zM133 730c29 0 51 -22 51 -53c0 -30 -22 -53 -51 -53s-51 23 -51 53c0 31 22 53 51 53zM95 526h77v-526h-77v526zM437 -20c0 -121 -69 -177 -151 -177c-38 0 -77 13 -107 36
l28 62c23 -17 50 -27 76 -27c46 -1 76 30 76 96v556h78v-546z" />
    <glyph glyph-name="imacron" unicode="&#x12b;" horiz-adv-x="267" 
d="M13 706h241v-59h-241v59zM95 526h77v-526h-77v526z" />
    <glyph glyph-name="iogonek" unicode="&#x12f;" horiz-adv-x="253" 
d="M127 731c30 0 51 -23 51 -54c0 -30 -21 -53 -51 -53c-28 0 -51 23 -51 53c0 31 23 54 51 54zM152 0c-38 -55 -50 -89 -50 -115c0 -24 14 -38 35 -38c20 0 37 13 53 33l26 -30c-21 -30 -54 -50 -87 -50c-38 0 -73 24 -73 74c0 35 18 73 52 126h-19v526h78v-526h-15z" />
    <glyph glyph-name="itilde" unicode="&#x129;" horiz-adv-x="267" 
d="M283 736c0 -73 -29 -112 -83 -112c-58 0 -81 61 -121 61c-28 0 -43 -19 -43 -53h-52c0 73 29 112 83 112c55 0 82 -61 121 -61c28 0 43 19 43 53h52zM95 526h77v-526h-77v526z" />
    <glyph glyph-name="j" unicode="j" horiz-adv-x="267" 
d="M131 731c31 0 53 -23 53 -54c0 -30 -22 -53 -53 -53c-30 0 -53 23 -53 53c0 31 23 54 53 54zM170 -20c0 -121 -69 -177 -151 -177c-38 0 -77 13 -107 36l28 62c23 -17 50 -27 76 -27c46 -1 76 30 76 96v556h78v-546z" />
    <glyph glyph-name="uni0237" unicode="&#x237;" horiz-adv-x="253" 
d="M170 -26c0 -111 -53 -171 -144 -170c-44 1 -84 13 -118 36l23 59c24 -18 51 -27 80 -28c53 -1 81 38 81 113v542h78v-552z" />
    <glyph glyph-name="jcircumflex" unicode="&#x135;" horiz-adv-x="253" 
d="M90 745h76l102 -129h-68l-72 91l-72 -91h-68zM170 -26c0 -111 -53 -171 -144 -170c-44 1 -84 13 -118 36l23 59c24 -18 51 -27 80 -28c53 -1 81 38 81 113v542h78v-552z" />
    <glyph glyph-name="k" unicode="k" horiz-adv-x="573" 
d="M469 0l-180 267l-111 -115v-152h-78v742h78v-489l271 273h92l-197 -203l218 -323h-93z" />
    <glyph glyph-name="kcommaaccent" unicode="&#x137;" horiz-adv-x="573" 
d="M344 323l218 -323h-93l-180 267l-111 -115v-152h-78v742h78v-489l271 273h92zM316 -55c25 0 47 -19 47 -50c0 -15 -5 -28 -14 -42l-47 -71h-44l33 72c-16 9 -23 25 -23 42c0 28 21 49 48 49z" />
    <glyph glyph-name="kgreenlandic" unicode="&#x138;" horiz-adv-x="569" 
d="M465 0l-180 267l-113 -117v-150h-77v526h77v-274l273 274h92l-197 -203l218 -323h-93z" />
    <glyph glyph-name="l" unicode="l" horiz-adv-x="290" 
d="M163 135c0 -45 19 -66 51 -66c17 0 36 8 55 22l15 -63c-29 -20 -60 -31 -89 -31c-63 0 -109 44 -109 129v616h77v-607z" />
    <glyph glyph-name="lacute" unicode="&#x13a;" horiz-adv-x="290" 
d="M192 966l79 -36l-124 -99h-75zM163 135c0 -45 19 -66 51 -66c17 0 36 8 55 22l15 -63c-29 -20 -60 -31 -89 -31c-63 0 -109 44 -109 129v616h77v-607z" />
    <glyph glyph-name="lacute.ss01" horiz-adv-x="290" 
d="M192 966l79 -36l-124 -99h-75zM163 135c0 -45 19 -66 51 -66c17 0 36 8 55 22l15 -63c-29 -20 -60 -31 -89 -31c-63 0 -109 44 -109 129v616h77v-607z" />
    <glyph glyph-name="lcaron" unicode="&#x13e;" horiz-adv-x="311" 
d="M163 135c0 -45 19 -66 51 -66c17 0 36 8 55 22l15 -63c-29 -20 -60 -31 -89 -31c-63 0 -109 44 -109 129v616h77v-607zM244 742h74l-20 -193h-54v193z" />
    <glyph glyph-name="lcaron.ss01" horiz-adv-x="290" 
d="M163 135c0 -45 19 -66 51 -66c17 0 36 8 55 22l15 -63c-29 -20 -60 -31 -89 -31c-63 0 -109 44 -109 129v616h77v-607zM244 742h74l-20 -193h-54v193z" />
    <glyph glyph-name="lcommaaccent" unicode="&#x13c;" horiz-adv-x="290" 
d="M195 -3c-63 0 -109 44 -109 129v616h77v-607c0 -45 19 -66 51 -66c17 0 36 8 55 22l15 -63c-29 -20 -60 -31 -89 -31zM164 -55c25 0 47 -19 47 -50c0 -15 -5 -28 -14 -42l-47 -71h-44l33 72c-16 9 -23 25 -23 42c0 28 21 49 48 49z" />
    <glyph glyph-name="lcommaaccent.ss01" horiz-adv-x="290" 
d="M195 -3c-63 0 -109 44 -109 129v616h77v-607c0 -45 19 -66 51 -66c17 0 36 8 55 22l15 -63c-29 -20 -60 -31 -89 -31zM164 -55c25 0 47 -19 47 -50c0 -15 -5 -28 -14 -42l-47 -71h-44l33 72c-16 9 -23 25 -23 42c0 28 21 49 48 49z" />
    <glyph glyph-name="ldot" unicode="&#x140;" horiz-adv-x="324" 
d="M163 135c0 -45 19 -66 51 -66c17 0 36 8 55 22l15 -63c-29 -20 -60 -31 -89 -31c-63 0 -109 44 -109 129v616h77v-607zM268 448c26 0 47 -21 47 -49s-21 -50 -47 -50c-27 0 -47 22 -47 50s20 49 47 49z" />
    <glyph glyph-name="ldot.ss01" horiz-adv-x="315" 
d="M163 135c0 -45 19 -66 51 -66c17 0 36 8 55 22l15 -63c-29 -20 -60 -31 -89 -31c-63 0 -109 44 -109 129v616h77v-607zM268 448c26 0 47 -21 47 -49s-21 -50 -47 -50c-27 0 -47 22 -47 50s20 49 47 49z" />
    <glyph glyph-name="uni1E37" unicode="&#x1e37;" horiz-adv-x="290" 
d="M163 135c0 -45 19 -66 51 -66c17 0 36 8 55 22l15 -63c-29 -20 -60 -31 -89 -31c-63 0 -109 44 -109 129v616h77v-607zM164 -56c29 0 51 -22 51 -53c0 -30 -22 -53 -51 -53s-51 23 -51 53c0 31 22 53 51 53z" />
    <glyph glyph-name="uni1E37.ss01" horiz-adv-x="290" 
d="M163 135c0 -45 19 -66 51 -66c17 0 36 8 55 22l15 -63c-29 -20 -60 -31 -89 -31c-63 0 -109 44 -109 129v616h77v-607zM164 -56c29 0 51 -22 51 -53c0 -30 -22 -53 -51 -53s-51 23 -51 53c0 31 22 53 51 53z" />
    <glyph glyph-name="uni01C9" unicode="&#x1c9;" horiz-adv-x="557" 
d="M163 135c0 -45 19 -66 51 -66c17 0 36 8 55 22l15 -63c-29 -20 -60 -31 -89 -31c-63 0 -109 44 -109 129v616h77v-607zM421 731c31 0 53 -23 53 -54c0 -30 -22 -53 -53 -53c-30 0 -53 23 -53 53c0 31 23 54 53 54zM460 -20c0 -121 -69 -177 -151 -177
c-38 0 -77 13 -107 36l28 62c23 -17 50 -27 76 -27c46 -1 76 30 76 96v556h78v-546z" />
    <glyph glyph-name="uni01C9.ss01" horiz-adv-x="557" 
d="M163 135c0 -45 19 -66 51 -66c17 0 36 8 55 22l15 -63c-29 -20 -60 -31 -89 -31c-63 0 -109 44 -109 129v616h77v-607zM421 731c31 0 53 -23 53 -54c0 -30 -22 -53 -53 -53c-30 0 -53 23 -53 53c0 31 23 54 53 54zM460 -20c0 -121 -69 -177 -151 -177
c-38 0 -77 13 -107 36l28 62c23 -17 50 -27 76 -27c46 -1 76 30 76 96v556h78v-546z" />
    <glyph glyph-name="uni1E3B" unicode="&#x1e3b;" horiz-adv-x="290" 
d="M163 135c0 -45 19 -66 51 -66c17 0 36 8 55 22l15 -63c-29 -20 -60 -31 -89 -31c-63 0 -109 44 -109 129v616h77v-607zM43 -63h241v-59h-241v59z" />
    <glyph glyph-name="uni1E3B.ss01" horiz-adv-x="290" 
d="M163 135c0 -45 19 -66 51 -66c17 0 36 8 55 22l15 -63c-29 -20 -60 -31 -89 -31c-63 0 -109 44 -109 129v616h77v-607zM43 -63h241v-59h-241v59z" />
    <glyph glyph-name="lslash" unicode="&#x142;" horiz-adv-x="328" 
d="M323 470l-131 -38v-297c0 -45 19 -66 51 -66c17 0 36 8 55 22l15 -63c-29 -20 -60 -31 -89 -31c-63 0 -109 44 -109 129v284l-102 -29v58l102 30v273h77v-250l131 38v-60z" />
    <glyph glyph-name="lslash.ss01" horiz-adv-x="329" 
d="M308 91l15 -63c-29 -20 -60 -31 -89 -31c-63 0 -109 44 -109 129v287l-112 -32v58l112 33v270h77v-247l120 35v-60l-120 -35v-300c0 -45 19 -66 51 -66c17 0 36 8 55 22z" />
    <glyph glyph-name="m" unicode="m" horiz-adv-x="1044" 
d="M770 529c123 0 196 -77 196 -205v-324h-78v304c0 95 -55 151 -146 151c-109 -3 -172 -82 -172 -196v-259h-79v304c0 95 -54 151 -146 151c-108 -3 -173 -82 -173 -196v-259h-77v526h77v-119c35 82 106 121 201 122c99 0 167 -50 189 -137c33 92 107 136 208 137z" />
    <glyph glyph-name="uni1E43" unicode="&#x1e43;" horiz-adv-x="1044" 
d="M770 529c123 0 196 -77 196 -205v-324h-78v304c0 95 -55 151 -146 151c-109 -3 -172 -82 -172 -196v-259h-79v304c0 95 -54 151 -146 151c-108 -3 -173 -82 -173 -196v-259h-77v526h77v-119c35 82 106 121 201 122c99 0 167 -50 189 -137c33 92 107 136 208 137zM531 -56
c29 0 51 -22 51 -53c0 -30 -22 -53 -51 -53s-51 23 -51 53c0 31 22 53 51 53z" />
    <glyph glyph-name="n" unicode="n" horiz-adv-x="656" 
d="M377 529c126 0 200 -77 200 -205v-324h-78v304c0 94 -56 150 -149 150c-104 -1 -168 -70 -177 -172v-282h-78v526h78v-116c37 80 108 118 204 119z" />
    <glyph glyph-name="nacute" unicode="&#x144;" horiz-adv-x="656" 
d="M490 714l-124 -99h-75l120 135zM377 529c126 0 200 -77 200 -205v-324h-78v304c0 94 -56 150 -149 150c-104 -1 -168 -70 -177 -172v-282h-78v526h78v-116c37 80 108 118 204 119z" />
    <glyph glyph-name="napostrophe" unicode="&#x149;" horiz-adv-x="720" 
d="M76 738c25 0 47 -19 47 -50c0 -15 -5 -28 -14 -42l-47 -71h-44l33 72c-16 9 -23 25 -23 42c0 28 21 49 48 49zM441 529c126 0 200 -77 200 -205v-324h-78v304c0 94 -56 150 -149 150c-104 -1 -168 -70 -177 -172v-282h-78v526h78v-116c37 80 108 118 204 119z" />
    <glyph glyph-name="ncaron" unicode="&#x148;" horiz-adv-x="656" 
d="M383 610h-82l-104 135h73l72 -94l72 94h73zM377 529c126 0 200 -77 200 -205v-324h-78v304c0 94 -56 150 -149 150c-104 -1 -168 -70 -177 -172v-282h-78v526h78v-116c37 80 108 118 204 119z" />
    <glyph glyph-name="ncommaaccent" unicode="&#x146;" horiz-adv-x="656" 
d="M377 529c126 0 200 -77 200 -205v-324h-78v304c0 94 -56 150 -149 150c-104 -1 -168 -70 -177 -172v-282h-78v526h78v-116c37 80 108 118 204 119zM332 -55c25 0 47 -19 47 -50c0 -15 -5 -28 -14 -42l-47 -71h-44l33 72c-16 9 -23 25 -23 42c0 28 21 49 48 49z" />
    <glyph glyph-name="uni1E45" unicode="&#x1e45;" horiz-adv-x="656" 
d="M344 624c-29 0 -51 23 -51 53c0 31 22 53 51 53s51 -22 51 -53c0 -30 -22 -53 -51 -53zM377 529c126 0 200 -77 200 -205v-324h-78v304c0 94 -56 150 -149 150c-104 -1 -168 -70 -177 -172v-282h-78v526h78v-116c37 80 108 118 204 119z" />
    <glyph glyph-name="uni1E47" unicode="&#x1e47;" horiz-adv-x="656" 
d="M377 529c126 0 200 -77 200 -205v-324h-78v304c0 94 -56 150 -149 150c-104 -1 -168 -70 -177 -172v-282h-78v526h78v-116c37 80 108 118 204 119zM332 -56c29 0 51 -22 51 -53c0 -30 -22 -53 -51 -53s-51 23 -51 53c0 31 22 53 51 53z" />
    <glyph glyph-name="eng" unicode="&#x14b;" horiz-adv-x="656" 
d="M377 529c126 0 200 -77 200 -205v-345c0 -120 -69 -176 -151 -176c-38 0 -76 13 -107 36l28 62c23 -17 51 -27 76 -27c46 -1 76 30 76 96v334c0 94 -56 150 -149 150c-104 -1 -168 -70 -177 -172v-282h-78v526h78v-116c37 80 108 118 204 119z" />
    <glyph glyph-name="uni01CC" unicode="&#x1cc;" horiz-adv-x="923" 
d="M787 624c-30 0 -53 23 -53 53c0 31 23 54 53 54c31 0 53 -23 53 -54c0 -30 -22 -53 -53 -53zM577 0h-78v304c0 94 -56 150 -149 150c-104 -1 -168 -70 -177 -172v-282h-78v526h78v-116c37 80 108 118 204 119c126 0 200 -77 200 -205v-324zM748 -30v556h78v-546
c0 -121 -69 -177 -151 -177c-38 0 -77 13 -107 36l28 62c23 -17 50 -27 76 -27c46 -1 76 30 76 96z" />
    <glyph glyph-name="uni1E49" unicode="&#x1e49;" horiz-adv-x="656" 
d="M377 529c126 0 200 -77 200 -205v-324h-78v304c0 94 -56 150 -149 150c-104 -1 -168 -70 -177 -172v-282h-78v526h78v-116c37 80 108 118 204 119zM211 -122v59h241v-59h-241z" />
    <glyph glyph-name="ntilde" unicode="&#xf1;" horiz-adv-x="656" 
d="M290 685c-28 0 -43 -19 -43 -53h-52c0 73 29 112 83 112c55 0 82 -61 121 -61c28 0 43 19 43 53h52c0 -73 -29 -112 -83 -112c-58 0 -81 61 -121 61zM377 529c126 0 200 -77 200 -205v-324h-78v304c0 94 -56 150 -149 150c-104 -1 -168 -70 -177 -172v-282h-78v526h78
v-116c37 80 108 118 204 119z" />
    <glyph glyph-name="o" unicode="o" horiz-adv-x="618" 
d="M309 529c156 0 267 -109 267 -265c0 -157 -111 -267 -267 -267c-157 0 -267 110 -267 267c0 156 110 265 267 265zM309 460c-111 0 -189 -81 -189 -197c0 -118 78 -198 189 -198c110 0 189 80 189 198c0 116 -79 197 -189 197z" />
    <glyph glyph-name="oacute" unicode="&#xf3;" horiz-adv-x="618" 
d="M376 750l79 -36l-124 -99h-75zM309 529c156 0 267 -109 267 -265c0 -157 -111 -267 -267 -267c-157 0 -267 110 -267 267c0 156 110 265 267 265zM309 460c-111 0 -189 -81 -189 -197c0 -118 78 -198 189 -198c110 0 189 80 189 198c0 116 -79 197 -189 197z" />
    <glyph glyph-name="obreve" unicode="&#x14f;" horiz-adv-x="618" 
d="M237 740c2 -42 32 -73 72 -73s70 31 72 73h55c-3 -76 -56 -129 -127 -129s-124 53 -127 129h55zM309 529c156 0 267 -109 267 -265c0 -157 -111 -267 -267 -267c-157 0 -267 110 -267 267c0 156 110 265 267 265zM309 460c-111 0 -189 -81 -189 -197
c0 -118 78 -198 189 -198c110 0 189 80 189 198c0 116 -79 197 -189 197z" />
    <glyph glyph-name="ocircumflex" unicode="&#xf4;" horiz-adv-x="618" 
d="M271 745h76l102 -129h-68l-72 91l-72 -91h-68zM309 529c156 0 267 -109 267 -265c0 -157 -111 -267 -267 -267c-157 0 -267 110 -267 267c0 156 110 265 267 265zM309 460c-111 0 -189 -81 -189 -197c0 -118 78 -198 189 -198c110 0 189 80 189 198
c0 116 -79 197 -189 197z" />
    <glyph glyph-name="uni1ED1" unicode="&#x1ed1;" horiz-adv-x="618" 
d="M526 852l69 -36l-125 -99h-64zM271 747h76l102 -129h-68l-72 91l-72 -91h-68zM309 529c156 0 267 -109 267 -265c0 -157 -111 -267 -267 -267c-157 0 -267 110 -267 267c0 156 110 265 267 265zM309 460c-111 0 -189 -81 -189 -197c0 -118 78 -198 189 -198
c110 0 189 80 189 198c0 116 -79 197 -189 197z" />
    <glyph glyph-name="uni1ED9" unicode="&#x1ed9;" horiz-adv-x="618" 
d="M347 747l102 -129h-68l-72 91l-72 -91h-68l102 129h76zM309 529c156 0 267 -109 267 -265c0 -157 -111 -267 -267 -267c-157 0 -267 110 -267 267c0 156 110 265 267 265zM309 460c-111 0 -189 -81 -189 -197c0 -118 78 -198 189 -198c110 0 189 80 189 198
c0 116 -79 197 -189 197zM309 -55c29 0 51 -23 51 -53s-22 -54 -51 -54s-51 24 -51 54s22 53 51 53z" />
    <glyph glyph-name="uni1ED3" unicode="&#x1ed3;" horiz-adv-x="618" 
d="M410 838l120 -135h-64l-124 99zM271 747h76l102 -129h-68l-72 91l-72 -91h-68zM309 529c156 0 267 -109 267 -265c0 -157 -111 -267 -267 -267c-157 0 -267 110 -267 267c0 156 110 265 267 265zM309 460c-111 0 -189 -81 -189 -197c0 -118 78 -198 189 -198
c110 0 189 80 189 198c0 116 -79 197 -189 197z" />
    <glyph glyph-name="uni1ED5" unicode="&#x1ed5;" horiz-adv-x="618" 
d="M331 813c7 45 43 73 92 73c52 0 86 -35 86 -82c0 -39 -20 -66 -55 -93l-41 14c33 26 53 48 53 77c0 22 -15 40 -44 40s-47 -17 -50 -44zM271 747h76l102 -129h-68l-72 91l-72 -91h-68zM309 529c156 0 267 -109 267 -265c0 -157 -111 -267 -267 -267
c-157 0 -267 110 -267 267c0 156 110 265 267 265zM309 460c-111 0 -189 -81 -189 -197c0 -118 78 -198 189 -198c110 0 189 80 189 198c0 116 -79 197 -189 197z" />
    <glyph glyph-name="uni1ED7" unicode="&#x1ed7;" horiz-adv-x="618" 
d="M456 872c0 -73 -29 -111 -83 -111c-59 0 -82 60 -122 60c-27 0 -42 -19 -42 -53h-53c0 73 29 112 83 112c56 0 82 -61 122 -61c27 0 42 19 42 53h53zM271 747h76l102 -129h-68l-72 91l-72 -91h-68zM309 529c156 0 267 -109 267 -265c0 -157 -111 -267 -267 -267
c-157 0 -267 110 -267 267c0 156 110 265 267 265zM309 460c-111 0 -189 -81 -189 -197c0 -118 78 -198 189 -198c110 0 189 80 189 198c0 116 -79 197 -189 197z" />
    <glyph glyph-name="uni020D" unicode="&#x20d;" horiz-adv-x="618" 
d="M186 754l91 -139h-65l-93 106zM333 754l91 -139h-65l-93 106zM309 529c156 0 267 -109 267 -265c0 -157 -111 -267 -267 -267c-157 0 -267 110 -267 267c0 156 110 265 267 265zM309 460c-111 0 -189 -81 -189 -197c0 -118 78 -198 189 -198c110 0 189 80 189 198
c0 116 -79 197 -189 197z" />
    <glyph glyph-name="odieresis" unicode="&#xf6;" horiz-adv-x="618" 
d="M226 727c27 0 48 -21 48 -50c0 -27 -21 -49 -48 -49s-47 22 -47 49c0 29 20 50 47 50zM393 727c26 0 47 -21 47 -50c0 -27 -21 -49 -47 -49c-27 0 -48 22 -48 49c0 29 21 50 48 50zM309 529c156 0 267 -109 267 -265c0 -157 -111 -267 -267 -267
c-157 0 -267 110 -267 267c0 156 110 265 267 265zM309 460c-111 0 -189 -81 -189 -197c0 -118 78 -198 189 -198c110 0 189 80 189 198c0 116 -79 197 -189 197z" />
    <glyph glyph-name="uni022B" unicode="&#x22b;" horiz-adv-x="618" 
d="M188 851h241v-59h-241v59zM225 727c27 0 48 -21 48 -50c0 -27 -21 -49 -48 -49s-47 22 -47 49c0 29 20 50 47 50zM392 727c26 0 47 -21 47 -50c0 -27 -21 -49 -47 -49c-27 0 -48 22 -48 49c0 29 21 50 48 50zM309 529c156 0 267 -109 267 -265
c0 -157 -111 -267 -267 -267c-157 0 -267 110 -267 267c0 156 110 265 267 265zM309 460c-111 0 -189 -81 -189 -197c0 -118 78 -198 189 -198c110 0 189 80 189 198c0 116 -79 197 -189 197z" />
    <glyph glyph-name="uni0231" unicode="&#x231;" horiz-adv-x="618" 
d="M188 828h241v-59h-241v59zM309 730c29 0 51 -22 51 -53c0 -30 -22 -53 -51 -53s-51 23 -51 53c0 31 22 53 51 53zM309 529c156 0 267 -109 267 -265c0 -157 -111 -267 -267 -267c-157 0 -267 110 -267 267c0 156 110 265 267 265zM309 460c-111 0 -189 -81 -189 -197
c0 -118 78 -198 189 -198c110 0 189 80 189 198c0 116 -79 197 -189 197z" />
    <glyph glyph-name="uni1ECD" unicode="&#x1ecd;" horiz-adv-x="618" 
d="M309 529c156 0 267 -109 267 -265c0 -157 -111 -267 -267 -267c-157 0 -267 110 -267 267c0 156 110 265 267 265zM309 460c-111 0 -189 -81 -189 -197c0 -118 78 -198 189 -198c110 0 189 80 189 198c0 116 -79 197 -189 197zM309 -55c29 0 51 -23 51 -53
s-22 -54 -51 -54s-51 24 -51 54s22 53 51 53z" />
    <glyph glyph-name="ograve" unicode="&#xf2;" horiz-adv-x="618" 
d="M239 750l120 -135h-75l-125 99zM309 529c156 0 267 -109 267 -265c0 -157 -111 -267 -267 -267c-157 0 -267 110 -267 267c0 156 110 265 267 265zM309 460c-111 0 -189 -81 -189 -197c0 -118 78 -198 189 -198c110 0 189 80 189 198c0 116 -79 197 -189 197z" />
    <glyph glyph-name="uni1ECF" unicode="&#x1ecf;" horiz-adv-x="618" 
d="M216 682c7 45 43 73 91 73c53 0 87 -35 87 -82c0 -39 -20 -66 -55 -93l-41 14c33 26 53 48 53 77c0 22 -15 40 -44 40s-47 -17 -50 -44zM309 529c156 0 267 -109 267 -265c0 -157 -111 -267 -267 -267c-157 0 -267 110 -267 267c0 156 110 265 267 265zM309 460
c-111 0 -189 -81 -189 -197c0 -118 78 -198 189 -198c110 0 189 80 189 198c0 116 -79 197 -189 197z" />
    <glyph glyph-name="ohorn" unicode="&#x1a1;" horiz-adv-x="618" 
d="M467 483c68 -46 109 -124 109 -219c0 -157 -111 -267 -267 -267c-157 0 -267 110 -267 267c0 156 110 265 267 265c32 0 63 -5 90 -13c44 11 73 46 73 95h62c-1 -55 -26 -101 -67 -128zM309 65c110 0 189 80 189 198c0 116 -79 197 -189 197c-111 0 -189 -81 -189 -197
c0 -118 78 -198 189 -198z" />
    <glyph glyph-name="uni1EDB" unicode="&#x1edb;" horiz-adv-x="618" 
d="M461 714l-124 -99h-75l120 135zM467 483c68 -46 109 -124 109 -219c0 -157 -111 -267 -267 -267c-157 0 -267 110 -267 267c0 156 110 265 267 265c32 0 63 -5 90 -13c44 11 73 46 73 95h62c-1 -55 -26 -101 -67 -128zM309 65c110 0 189 80 189 198
c0 116 -79 197 -189 197c-111 0 -189 -81 -189 -197c0 -118 78 -198 189 -198z" />
    <glyph glyph-name="uni1EE3" unicode="&#x1ee3;" horiz-adv-x="618" 
d="M467 483c68 -46 109 -124 109 -219c0 -157 -111 -267 -267 -267c-157 0 -267 110 -267 267c0 156 110 265 267 265c32 0 63 -5 90 -13c44 11 73 46 73 95h62c-1 -55 -26 -101 -67 -128zM309 65c110 0 189 80 189 198c0 116 -79 197 -189 197c-111 0 -189 -81 -189 -197
c0 -118 78 -198 189 -198zM309 -55c29 0 51 -23 51 -53s-22 -54 -51 -54s-51 24 -51 54s22 53 51 53z" />
    <glyph glyph-name="uni1EDD" unicode="&#x1edd;" horiz-adv-x="618" 
d="M356 615h-75l-125 99l80 36zM467 483c68 -46 109 -124 109 -219c0 -157 -111 -267 -267 -267c-157 0 -267 110 -267 267c0 156 110 265 267 265c32 0 63 -5 90 -13c44 11 73 46 73 95h62c-1 -55 -26 -101 -67 -128zM309 65c110 0 189 80 189 198c0 116 -79 197 -189 197
c-111 0 -189 -81 -189 -197c0 -118 78 -198 189 -198z" />
    <glyph glyph-name="uni1EDF" unicode="&#x1edf;" horiz-adv-x="618" 
d="M307 711c-29 0 -47 -17 -50 -44l-41 15c7 45 43 73 91 73c53 0 87 -35 87 -82c0 -39 -20 -66 -55 -93l-41 14c33 26 53 48 53 77c0 22 -15 40 -44 40zM467 483c68 -46 109 -124 109 -219c0 -157 -111 -267 -267 -267c-157 0 -267 110 -267 267c0 156 110 265 267 265
c32 0 63 -5 90 -13c44 11 73 46 73 95h62c-1 -55 -26 -101 -67 -128zM309 65c110 0 189 80 189 198c0 116 -79 197 -189 197c-111 0 -189 -81 -189 -197c0 -118 78 -198 189 -198z" />
    <glyph glyph-name="uni1EE1" unicode="&#x1ee1;" horiz-adv-x="618" 
d="M255 685c-28 0 -43 -19 -43 -53h-52c0 73 29 112 83 112c55 0 82 -61 121 -61c28 0 43 19 43 53h52c0 -73 -29 -112 -83 -112c-58 0 -81 61 -121 61zM467 483c68 -46 109 -124 109 -219c0 -157 -111 -267 -267 -267c-157 0 -267 110 -267 267c0 156 110 265 267 265
c32 0 63 -5 90 -13c44 11 73 46 73 95h62c-1 -55 -26 -101 -67 -128zM309 65c110 0 189 80 189 198c0 116 -79 197 -189 197c-111 0 -189 -81 -189 -197c0 -118 78 -198 189 -198z" />
    <glyph glyph-name="ohungarumlaut" unicode="&#x151;" horiz-adv-x="618" 
d="M272 752l66 -33l-92 -106h-65zM419 752l66 -33l-92 -106h-65zM309 529c156 0 267 -109 267 -265c0 -157 -111 -267 -267 -267c-157 0 -267 110 -267 267c0 156 110 265 267 265zM309 460c-111 0 -189 -81 -189 -197c0 -118 78 -198 189 -198c110 0 189 80 189 198
c0 116 -79 197 -189 197z" />
    <glyph glyph-name="uni020F" unicode="&#x20f;" horiz-adv-x="618" 
d="M237 612h-55c3 76 56 129 127 129s124 -53 127 -129h-55c-2 42 -32 73 -72 73s-70 -31 -72 -73zM309 529c156 0 267 -109 267 -265c0 -157 -111 -267 -267 -267c-157 0 -267 110 -267 267c0 156 110 265 267 265zM309 460c-111 0 -189 -81 -189 -197
c0 -118 78 -198 189 -198c110 0 189 80 189 198c0 116 -79 197 -189 197z" />
    <glyph glyph-name="omacron" unicode="&#x14d;" horiz-adv-x="618" 
d="M189 706h241v-59h-241v59zM309 529c156 0 267 -109 267 -265c0 -157 -111 -267 -267 -267c-157 0 -267 110 -267 267c0 156 110 265 267 265zM309 460c-111 0 -189 -81 -189 -197c0 -118 78 -198 189 -198c110 0 189 80 189 198c0 116 -79 197 -189 197z" />
    <glyph glyph-name="uni1E53" unicode="&#x1e53;" horiz-adv-x="618" 
d="M382 892l79 -36l-124 -99h-75zM188 686h241v-59h-241v59zM309 529c156 0 267 -109 267 -265c0 -157 -111 -267 -267 -267c-157 0 -267 110 -267 267c0 156 110 265 267 265zM309 460c-111 0 -189 -81 -189 -197c0 -118 78 -198 189 -198c110 0 189 80 189 198
c0 116 -79 197 -189 197z" />
    <glyph glyph-name="uni1E51" unicode="&#x1e51;" horiz-adv-x="618" 
d="M236 892l120 -135h-75l-125 99zM188 686h241v-59h-241v59zM309 529c156 0 267 -109 267 -265c0 -157 -111 -267 -267 -267c-157 0 -267 110 -267 267c0 156 110 265 267 265zM309 460c-111 0 -189 -81 -189 -197c0 -118 78 -198 189 -198c110 0 189 80 189 198
c0 116 -79 197 -189 197z" />
    <glyph glyph-name="uni01EB" unicode="&#x1eb;" horiz-adv-x="618" 
d="M576 264c0 -152 -103 -259 -251 -267c-38 -51 -51 -85 -51 -111c0 -24 15 -38 35 -38s38 13 54 33l26 -30c-22 -30 -54 -50 -87 -50c-38 0 -73 24 -73 74c0 35 17 73 53 123c-143 12 -240 118 -240 266c0 156 110 265 267 265c156 0 267 -109 267 -265zM120 263
c0 -118 78 -198 189 -198c110 0 189 80 189 198c0 116 -79 197 -189 197c-111 0 -189 -81 -189 -197z" />
    <glyph glyph-name="oslash" unicode="&#xf8;" horiz-adv-x="618" 
d="M447 495c79 -44 129 -127 129 -231c0 -157 -111 -267 -267 -267c-38 0 -74 7 -106 19l-59 -117h-40l67 132c-80 44 -129 128 -129 233c0 156 110 265 267 265c38 0 74 -7 106 -19l59 117h40zM116 263c0 -77 32 -139 85 -173l184 362c-23 9 -48 14 -76 14
c-113 0 -193 -83 -193 -203zM309 59c113 0 193 83 193 204c0 76 -33 138 -85 172l-184 -362c23 -9 48 -14 76 -14z" />
    <glyph glyph-name="oslashacute" unicode="&#x1ff;" horiz-adv-x="618" 
d="M461 714l-124 -99h-75l120 135zM447 495c79 -44 129 -127 129 -231c0 -157 -111 -267 -267 -267c-38 0 -74 7 -106 19l-59 -117h-40l67 132c-80 44 -129 128 -129 233c0 156 110 265 267 265c38 0 74 -7 106 -19l59 117h40zM116 263c0 -77 32 -139 85 -173l184 362
c-23 9 -48 14 -76 14c-113 0 -193 -83 -193 -203zM309 59c113 0 193 83 193 204c0 76 -33 138 -85 172l-184 -362c23 -9 48 -14 76 -14z" />
    <glyph glyph-name="otilde" unicode="&#xf5;" horiz-adv-x="618" 
d="M459 736c0 -73 -29 -112 -83 -112c-58 0 -81 61 -121 61c-28 0 -43 -19 -43 -53h-52c0 73 29 112 83 112c55 0 82 -61 121 -61c28 0 43 19 43 53h52zM309 529c156 0 267 -109 267 -265c0 -157 -111 -267 -267 -267c-157 0 -267 110 -267 267c0 156 110 265 267 265z
M309 460c-111 0 -189 -81 -189 -197c0 -118 78 -198 189 -198c110 0 189 80 189 198c0 116 -79 197 -189 197z" />
    <glyph glyph-name="uni1E4D" unicode="&#x1e4d;" horiz-adv-x="618" 
d="M382 927l79 -36l-124 -99h-75zM459 736c0 -73 -29 -112 -83 -112c-58 0 -81 61 -121 61c-28 0 -43 -19 -43 -53h-52c0 73 29 112 83 112c55 0 82 -61 121 -61c28 0 43 19 43 53h52zM309 529c156 0 267 -109 267 -265c0 -157 -111 -267 -267 -267
c-157 0 -267 110 -267 267c0 156 110 265 267 265zM309 460c-111 0 -189 -81 -189 -197c0 -118 78 -198 189 -198c110 0 189 80 189 198c0 116 -79 197 -189 197z" />
    <glyph glyph-name="uni1E4F" unicode="&#x1e4f;" horiz-adv-x="618" 
d="M225 904c27 0 48 -21 48 -50c0 -27 -21 -49 -48 -49s-47 22 -47 49c0 29 20 50 47 50zM392 904c26 0 47 -21 47 -50c0 -27 -21 -49 -47 -49c-27 0 -48 22 -48 49c0 29 21 50 48 50zM459 736c0 -73 -29 -112 -83 -112c-58 0 -81 61 -121 61c-28 0 -43 -19 -43 -53h-52
c0 73 29 112 83 112c55 0 82 -61 121 -61c28 0 43 19 43 53h52zM309 529c156 0 267 -109 267 -265c0 -157 -111 -267 -267 -267c-157 0 -267 110 -267 267c0 156 110 265 267 265zM309 460c-111 0 -189 -81 -189 -197c0 -118 78 -198 189 -198c110 0 189 80 189 198
c0 116 -79 197 -189 197z" />
    <glyph glyph-name="uni022D" unicode="&#x22d;" horiz-adv-x="618" 
d="M188 863h241v-59h-241v59zM459 736c0 -73 -29 -112 -83 -112c-58 0 -81 61 -121 61c-28 0 -43 -19 -43 -53h-52c0 73 29 112 83 112c55 0 82 -61 121 -61c28 0 43 19 43 53h52zM309 529c156 0 267 -109 267 -265c0 -157 -111 -267 -267 -267c-157 0 -267 110 -267 267
c0 156 110 265 267 265zM309 460c-111 0 -189 -81 -189 -197c0 -118 78 -198 189 -198c110 0 189 80 189 198c0 116 -79 197 -189 197z" />
    <glyph glyph-name="oe" unicode="&#x153;" horiz-adv-x="1032" 
d="M770 62c65 0 123 28 168 84l48 -42c-59 -72 -133 -107 -221 -107c-107 0 -189 54 -229 140c-39 -86 -121 -140 -227 -140c-156 0 -267 109 -267 267c0 156 111 265 267 265c106 0 187 -53 227 -139c38 85 117 138 223 139c130 1 223 -77 240 -205l-409 -139
c28 -75 94 -123 180 -123zM763 463c-112 0 -187 -74 -187 -196c0 -8 0 -15 1 -23l344 119c-27 67 -84 100 -158 100zM309 65c110 0 189 80 189 198c0 116 -79 197 -189 197c-111 0 -189 -81 -189 -197c0 -118 78 -198 189 -198z" />
    <glyph glyph-name="p" unicode="p" horiz-adv-x="676" 
d="M381 529c149 0 253 -110 253 -267c0 -156 -102 -265 -251 -265c-94 0 -166 43 -205 116v-307h-78v720h78v-113c39 73 111 116 203 116zM367 66c110 0 188 83 188 198c0 114 -78 198 -188 198c-111 0 -189 -83 -189 -198c0 -116 78 -198 189 -198z" />
    <glyph glyph-name="thorn" unicode="&#xfe;" horiz-adv-x="676" 
d="M178 414c38 72 111 115 203 115c149 0 253 -110 253 -267c0 -156 -102 -265 -251 -265c-94 0 -167 43 -205 115v-306h-78v936h78v-328zM367 462c-111 0 -189 -83 -189 -198c0 -116 78 -198 189 -198c110 0 188 83 188 198c0 114 -78 198 -188 198z" />
    <glyph glyph-name="q" unicode="q" horiz-adv-x="679" 
d="M501 526h78v-720h-78v307c-39 -74 -111 -117 -205 -117c-150 0 -254 111 -254 268s104 266 253 266c94 0 167 -43 206 -118v114zM311 63c111 0 190 83 190 199s-79 200 -190 200c-112 0 -191 -84 -191 -200s79 -199 191 -199z" />
    <glyph glyph-name="r" unicode="r" horiz-adv-x="372" 
d="M173 409c35 77 100 119 189 120v-76c-111 2 -180 -67 -189 -173v-280h-78v526h78v-117z" />
    <glyph glyph-name="racute" unicode="&#x155;" horiz-adv-x="372" 
d="M376 714l-124 -99h-75l120 135zM173 409c35 77 100 119 189 120v-76c-111 2 -180 -67 -189 -173v-280h-78v526h78v-117z" />
    <glyph glyph-name="rcaron" unicode="&#x159;" horiz-adv-x="372" 
d="M269 610h-82l-104 135h73l72 -94l72 94h73zM173 409c35 77 100 119 189 120v-76c-111 2 -180 -67 -189 -173v-280h-78v526h78v-117z" />
    <glyph glyph-name="rcommaaccent" unicode="&#x157;" horiz-adv-x="372" 
d="M173 409c35 77 100 119 189 120v-76c-111 2 -180 -67 -189 -173v-280h-78v526h78v-117zM132 -55c25 0 47 -19 47 -50c0 -15 -5 -28 -14 -42l-47 -71h-44l33 72c-16 9 -23 25 -23 42c0 28 21 49 48 49z" />
    <glyph glyph-name="uni0211" unicode="&#x211;" horiz-adv-x="372" 
d="M198 615h-65l-93 106l67 33zM345 615h-65l-93 106l67 33zM173 409c35 77 100 119 189 120v-76c-111 2 -180 -67 -189 -173v-280h-78v526h78v-117z" />
    <glyph glyph-name="uni1E5B" unicode="&#x1e5b;" horiz-adv-x="372" 
d="M173 409c35 77 100 119 189 120v-76c-111 2 -180 -67 -189 -173v-280h-78v526h78v-117zM132 -56c29 0 51 -22 51 -53c0 -30 -22 -53 -51 -53s-51 23 -51 53c0 31 22 53 51 53z" />
    <glyph glyph-name="uni0213" unicode="&#x213;" horiz-adv-x="372" 
d="M230 685c-40 0 -70 -31 -72 -73h-55c3 76 56 129 127 129s124 -53 127 -129h-55c-2 42 -32 73 -72 73zM173 409c35 77 100 119 189 120v-76c-111 2 -180 -67 -189 -173v-280h-78v526h78v-117z" />
    <glyph glyph-name="uni1E5F" unicode="&#x1e5f;" horiz-adv-x="372" 
d="M173 409c35 77 100 119 189 120v-76c-111 2 -180 -67 -189 -173v-280h-78v526h78v-117zM11 -122v59h241v-59h-241z" />
    <glyph glyph-name="s" unicode="s" horiz-adv-x="453" 
d="M373 422c-41 26 -94 42 -143 42c-59 0 -104 -21 -104 -71c0 -119 294 -58 294 -247c0 -103 -92 -149 -193 -149c-75 0 -152 26 -202 74l30 57c45 -42 113 -67 175 -67s112 24 113 77c3 128 -292 63 -291 249c0 100 87 143 183 143c63 0 124 -19 168 -48z" />
    <glyph glyph-name="sacute" unicode="&#x15b;" horiz-adv-x="453" 
d="M297 750l79 -36l-124 -99h-75zM373 422c-41 26 -94 42 -143 42c-59 0 -104 -21 -104 -71c0 -119 294 -58 294 -247c0 -103 -92 -149 -193 -149c-75 0 -152 26 -202 74l30 57c45 -42 113 -67 175 -67s112 24 113 77c3 128 -292 63 -291 249c0 100 87 143 183 143
c63 0 124 -19 168 -48z" />
    <glyph glyph-name="uni1E65" unicode="&#x1e65;" horiz-adv-x="453" 
d="M230 898c29 0 51 -22 51 -53c0 -30 -22 -53 -51 -53s-51 23 -51 53c0 31 22 53 51 53zM303 750l79 -36l-124 -99h-75zM373 422c-41 26 -94 42 -143 42c-59 0 -104 -21 -104 -71c0 -119 294 -58 294 -247c0 -103 -92 -149 -193 -149c-75 0 -152 26 -202 74l30 57
c45 -42 113 -67 175 -67s112 24 113 77c3 128 -292 63 -291 249c0 100 87 143 183 143c63 0 124 -19 168 -48z" />
    <glyph glyph-name="scaron" unicode="&#x161;" horiz-adv-x="453" 
d="M83 745h73l72 -94l72 94h73l-104 -135h-82zM373 422c-41 26 -94 42 -143 42c-59 0 -104 -21 -104 -71c0 -119 294 -58 294 -247c0 -103 -92 -149 -193 -149c-75 0 -152 26 -202 74l30 57c45 -42 113 -67 175 -67s112 24 113 77c3 128 -292 63 -291 249
c0 100 87 143 183 143c63 0 124 -19 168 -48z" />
    <glyph glyph-name="uni1E67" unicode="&#x1e67;" horiz-adv-x="453" 
d="M230 903c29 0 51 -22 51 -53c0 -30 -22 -53 -51 -53s-51 23 -51 53c0 31 22 53 51 53zM85 747h73l72 -94l72 94h73l-104 -135h-82zM373 422c-41 26 -94 42 -143 42c-59 0 -104 -21 -104 -71c0 -119 294 -58 294 -247c0 -103 -92 -149 -193 -149c-75 0 -152 26 -202 74
l30 57c45 -42 113 -67 175 -67s112 24 113 77c3 128 -292 63 -291 249c0 100 87 143 183 143c63 0 124 -19 168 -48z" />
    <glyph glyph-name="scedilla" unicode="&#x15f;" horiz-adv-x="453" 
d="M420 146c0 -90 -70 -136 -155 -147l-22 -49c41 -5 71 -32 71 -75c1 -54 -41 -90 -97 -90c-30 0 -61 10 -81 25l17 41c16 -12 39 -20 59 -20c33 0 54 23 53 48c0 23 -18 43 -50 43c-10 0 -24 -2 -33 -3l33 78c-71 3 -143 28 -190 74l30 57c45 -42 113 -67 175 -67
s112 24 113 77c3 128 -292 63 -291 249c0 100 87 143 183 143c63 0 124 -19 168 -48l-30 -60c-41 26 -94 42 -143 42c-59 0 -104 -21 -104 -71c0 -119 294 -58 294 -247z" />
    <glyph glyph-name="scircumflex" unicode="&#x15d;" horiz-adv-x="453" 
d="M192 745h76l102 -129h-68l-72 91l-72 -91h-68zM373 422c-41 26 -94 42 -143 42c-59 0 -104 -21 -104 -71c0 -119 294 -58 294 -247c0 -103 -92 -149 -193 -149c-75 0 -152 26 -202 74l30 57c45 -42 113 -67 175 -67s112 24 113 77c3 128 -292 63 -291 249
c0 100 87 143 183 143c63 0 124 -19 168 -48z" />
    <glyph glyph-name="scommaaccent" unicode="&#x219;" horiz-adv-x="453" 
d="M126 393c0 -119 294 -58 294 -247c0 -103 -92 -149 -193 -149c-75 0 -152 26 -202 74l30 57c45 -42 113 -67 175 -67s112 24 113 77c3 128 -292 63 -291 249c0 100 87 143 183 143c63 0 124 -19 168 -48l-30 -60c-41 26 -94 42 -143 42c-59 0 -104 -21 -104 -71zM225 -55
c25 0 47 -19 47 -50c0 -15 -5 -28 -14 -42l-47 -71h-44l33 72c-16 9 -23 25 -23 42c0 28 21 49 48 49z" />
    <glyph glyph-name="uni1E61" unicode="&#x1e61;" horiz-adv-x="453" 
d="M230 730c29 0 51 -22 51 -53c0 -30 -22 -53 -51 -53s-51 23 -51 53c0 31 22 53 51 53zM373 422c-41 26 -94 42 -143 42c-59 0 -104 -21 -104 -71c0 -119 294 -58 294 -247c0 -103 -92 -149 -193 -149c-75 0 -152 26 -202 74l30 57c45 -42 113 -67 175 -67s112 24 113 77
c3 128 -292 63 -291 249c0 100 87 143 183 143c63 0 124 -19 168 -48z" />
    <glyph glyph-name="uni1E63" unicode="&#x1e63;" horiz-adv-x="453" 
d="M373 422c-41 26 -94 42 -143 42c-59 0 -104 -21 -104 -71c0 -119 294 -58 294 -247c0 -103 -92 -149 -193 -149c-75 0 -152 26 -202 74l30 57c45 -42 113 -67 175 -67s112 24 113 77c3 128 -292 63 -291 249c0 100 87 143 183 143c63 0 124 -19 168 -48zM225 -56
c29 0 51 -22 51 -53c0 -30 -22 -53 -51 -53s-51 23 -51 53c0 31 22 53 51 53z" />
    <glyph glyph-name="uni1E69" unicode="&#x1e69;" horiz-adv-x="453" 
d="M230 730c29 0 51 -22 51 -53c0 -30 -22 -53 -51 -53s-51 23 -51 53c0 31 22 53 51 53zM373 422c-41 26 -94 42 -143 42c-59 0 -104 -21 -104 -71c0 -119 294 -58 294 -247c0 -103 -92 -149 -193 -149c-75 0 -152 26 -202 74l30 57c45 -42 113 -67 175 -67s112 24 113 77
c3 128 -292 63 -291 249c0 100 87 143 183 143c63 0 124 -19 168 -48zM225 -56c29 0 51 -22 51 -53c0 -30 -22 -53 -51 -53s-51 23 -51 53c0 31 22 53 51 53z" />
    <glyph glyph-name="germandbls" unicode="&#xdf;" horiz-adv-x="649" 
d="M90 490c0 155 93 255 242 255c131 0 221 -74 221 -189c0 -84 -51 -153 -129 -176c99 -17 167 -78 167 -174c0 -122 -99 -206 -253 -206h-53v63h58c104 0 172 57 172 140c0 85 -75 137 -190 137h-10v62c99 0 162 57 162 143c0 82 -58 135 -146 135
c-100 0 -163 -72 -163 -185v-495h-78v490z" />
    <glyph glyph-name="t" unicode="t" horiz-adv-x="357" 
d="M312 96l23 -60c-38 -25 -79 -39 -118 -39c-80 0 -136 56 -136 169v482h77v-138h167v-61h-167v-270c0 -75 25 -110 71 -110c26 0 54 10 83 27z" />
    <glyph glyph-name="tbar" unicode="&#x167;" horiz-adv-x="357" 
d="M312 96l23 -60c-38 -25 -79 -39 -118 -39c-80 -1 -136 56 -136 169v482h77v-138h167v-61h-167v-122h167v-61h-167v-87c0 -75 25 -110 71 -110c26 1 54 10 83 27z" />
    <glyph glyph-name="tcaron" unicode="&#x165;" horiz-adv-x="357" 
d="M308 742l-20 -164h-54v164h74zM312 96l23 -60c-38 -25 -79 -39 -118 -39c-80 0 -136 56 -136 169v482h77v-138h167v-61h-167v-270c0 -75 25 -110 71 -110c26 0 54 10 83 27z" />
    <glyph glyph-name="uni0163" unicode="&#x163;" horiz-adv-x="357" 
d="M234 -50c41 -5 71 -32 71 -75c1 -54 -41 -90 -97 -90c-30 0 -61 10 -81 25l17 41c16 -12 39 -20 59 -20c33 0 54 23 53 48c0 23 -18 43 -50 43c-10 0 -24 -2 -33 -3l33 78c-74 5 -125 61 -125 169v482h77v-138h167v-61h-167v-270c0 -75 25 -110 71 -110c26 0 54 10 83 27
l23 -60c-25 -17 -52 -28 -78 -34z" />
    <glyph glyph-name="uni021B" unicode="&#x21b;" horiz-adv-x="357" 
d="M335 36c-38 -25 -79 -39 -118 -39c-80 0 -136 56 -136 169v482h77v-138h167v-61h-167v-270c0 -75 25 -110 71 -110c26 0 54 10 83 27zM216 -55c25 0 47 -19 47 -50c0 -15 -5 -28 -14 -42l-47 -71h-44l33 72c-16 9 -23 25 -23 42c0 28 21 49 48 49z" />
    <glyph glyph-name="uni1E97" unicode="&#x1e97;" horiz-adv-x="357" 
d="M36 849c27 0 48 -21 48 -50c0 -27 -21 -49 -48 -49s-47 22 -47 49c0 29 20 50 47 50zM203 750c-27 0 -48 22 -48 49c0 29 21 50 48 50c26 0 47 -21 47 -50c0 -27 -21 -49 -47 -49zM312 96l23 -60c-38 -25 -79 -39 -118 -39c-80 0 -136 56 -136 169v482h77v-138h167v-61
h-167v-270c0 -75 25 -110 71 -110c26 0 54 10 83 27z" />
    <glyph glyph-name="uni1E97.ss01" horiz-adv-x="357" 
d="M36 849c27 0 48 -21 48 -50c0 -27 -21 -49 -48 -49s-47 22 -47 49c0 29 20 50 47 50zM203 750c-27 0 -48 22 -48 49c0 29 21 50 48 50c26 0 47 -21 47 -50c0 -27 -21 -49 -47 -49zM312 96l23 -60c-38 -25 -79 -39 -118 -39c-80 0 -136 56 -136 169v482h77v-138h167v-61
h-167v-270c0 -75 25 -110 71 -110c26 0 54 10 83 27z" />
    <glyph glyph-name="uni1E6D" unicode="&#x1e6d;" horiz-adv-x="357" 
d="M335 36c-38 -25 -79 -39 -118 -39c-80 0 -136 56 -136 169v482h77v-138h167v-61h-167v-270c0 -75 25 -110 71 -110c26 0 54 10 83 27zM216 -56c29 0 51 -22 51 -53c0 -30 -22 -53 -51 -53s-51 23 -51 53c0 31 22 53 51 53z" />
    <glyph glyph-name="uni1E6D.ss01" horiz-adv-x="357" 
d="M335 36c-38 -25 -79 -39 -118 -39c-80 0 -136 56 -136 169v482h77v-138h167v-61h-167v-270c0 -75 25 -110 71 -110c26 0 54 10 83 27zM216 -56c29 0 51 -22 51 -53c0 -30 -22 -53 -51 -53s-51 23 -51 53c0 31 22 53 51 53z" />
    <glyph glyph-name="uni1E6F" unicode="&#x1e6f;" horiz-adv-x="357" 
d="M217 -3c-80 0 -136 56 -136 169v482h77v-138h167v-61h-167v-270c0 -75 25 -110 71 -110c26 0 54 10 83 27l23 -60c-38 -25 -79 -39 -118 -39zM95 -63h241v-59h-241v59z" />
    <glyph glyph-name="uni1E6F.ss01" horiz-adv-x="357" 
d="M217 -3c-80 0 -136 56 -136 169v482h77v-138h167v-61h-167v-270c0 -75 25 -110 71 -110c26 0 54 10 83 27l23 -60c-38 -25 -79 -39 -118 -39zM95 -63h241v-59h-241v59z" />
    <glyph glyph-name="u" unicode="u" horiz-adv-x="647" 
d="M474 526h78v-526h-78v119c-35 -82 -105 -121 -200 -122c-123 0 -197 78 -197 205v324h78v-304c0 -94 55 -150 146 -150c109 2 173 82 173 196v258z" />
    <glyph glyph-name="uacute" unicode="&#xfa;" horiz-adv-x="647" 
d="M463 714l-124 -99h-75l120 135zM474 526h78v-526h-78v119c-35 -82 -105 -121 -200 -122c-123 0 -197 78 -197 205v324h78v-304c0 -94 55 -150 146 -150c109 2 173 82 173 196v258z" />
    <glyph glyph-name="ubreve" unicode="&#x16d;" horiz-adv-x="647" 
d="M317 611c-71 0 -124 53 -127 129h55c2 -42 32 -73 72 -73s70 31 72 73h55c-3 -76 -56 -129 -127 -129zM474 526h78v-526h-78v119c-35 -82 -105 -121 -200 -122c-123 0 -197 78 -197 205v324h78v-304c0 -94 55 -150 146 -150c109 2 173 82 173 196v258z" />
    <glyph glyph-name="ucircumflex" unicode="&#xfb;" horiz-adv-x="647" 
d="M317 707l-72 -91h-68l102 129h76l102 -129h-68zM474 526h78v-526h-78v119c-35 -82 -105 -121 -200 -122c-123 0 -197 78 -197 205v324h78v-304c0 -94 55 -150 146 -150c109 2 173 82 173 196v258z" />
    <glyph glyph-name="uni0215" unicode="&#x215;" horiz-adv-x="647" 
d="M285 615h-65l-93 106l67 33zM432 615h-65l-93 106l67 33zM474 526h78v-526h-78v119c-35 -82 -105 -121 -200 -122c-123 0 -197 78 -197 205v324h78v-304c0 -94 55 -150 146 -150c109 2 173 82 173 196v258z" />
    <glyph glyph-name="udieresis" unicode="&#xfc;" horiz-adv-x="647" 
d="M234 628c-27 0 -47 22 -47 49c0 29 20 50 47 50s48 -21 48 -50c0 -27 -21 -49 -48 -49zM401 628c-27 0 -48 22 -48 49c0 29 21 50 48 50c26 0 47 -21 47 -50c0 -27 -21 -49 -47 -49zM474 526h78v-526h-78v119c-35 -82 -105 -121 -200 -122c-123 0 -197 78 -197 205v324
h78v-304c0 -94 55 -150 146 -150c109 2 173 82 173 196v258z" />
    <glyph glyph-name="uni1EE5" unicode="&#x1ee5;" horiz-adv-x="647" 
d="M474 526h78v-526h-78v119c-35 -82 -105 -121 -200 -122c-123 0 -197 78 -197 205v324h78v-304c0 -94 55 -150 146 -150c109 2 173 82 173 196v258zM329 -55c29 0 51 -23 51 -53s-22 -54 -51 -54s-51 24 -51 54s22 53 51 53z" />
    <glyph glyph-name="ugrave" unicode="&#xf9;" horiz-adv-x="647" 
d="M367 615h-75l-125 99l80 36zM474 526h78v-526h-78v119c-35 -82 -105 -121 -200 -122c-123 0 -197 78 -197 205v324h78v-304c0 -94 55 -150 146 -150c109 2 173 82 173 196v258z" />
    <glyph glyph-name="uni1EE7" unicode="&#x1ee7;" horiz-adv-x="647" 
d="M315 711c-29 0 -47 -17 -50 -44l-41 15c7 45 43 73 91 73c53 0 87 -35 87 -82c0 -39 -20 -66 -55 -93l-41 14c33 26 53 48 53 77c0 22 -15 40 -44 40zM474 526h78v-526h-78v119c-35 -82 -105 -121 -200 -122c-123 0 -197 78 -197 205v324h78v-304c0 -94 55 -150 146 -150
c109 2 173 82 173 196v258z" />
    <glyph glyph-name="uhorn" unicode="&#x1b0;" horiz-adv-x="647" 
d="M665 611c-1 -74 -45 -130 -113 -149v-462h-78v119c-35 -82 -105 -121 -200 -122c-123 0 -197 78 -197 205v324h78v-304c0 -94 55 -150 146 -150c109 2 173 82 173 196v258h78v-2c32 16 51 47 51 87h62z" />
    <glyph glyph-name="uni1EE9" unicode="&#x1ee9;" horiz-adv-x="647" 
d="M472 714l-124 -99h-75l120 135zM665 611c-1 -74 -45 -130 -113 -149v-462h-78v119c-35 -82 -105 -121 -200 -122c-123 0 -197 78 -197 205v324h78v-304c0 -94 55 -150 146 -150c109 2 173 82 173 196v258h78v-2c32 16 51 47 51 87h62z" />
    <glyph glyph-name="uni1EF1" unicode="&#x1ef1;" horiz-adv-x="647" 
d="M665 611c-1 -74 -45 -130 -113 -149v-462h-78v119c-35 -82 -105 -121 -200 -122c-123 0 -197 78 -197 205v324h78v-304c0 -94 55 -150 146 -150c109 2 173 82 173 196v258h78v-2c32 16 51 47 51 87h62zM329 -55c29 0 51 -23 51 -53s-22 -54 -51 -54s-51 24 -51 54
s22 53 51 53z" />
    <glyph glyph-name="uni1EEB" unicode="&#x1eeb;" horiz-adv-x="647" 
d="M367 615h-75l-125 99l80 36zM665 611c-1 -74 -45 -130 -113 -149v-462h-78v119c-35 -82 -105 -121 -200 -122c-123 0 -197 78 -197 205v324h78v-304c0 -94 55 -150 146 -150c109 2 173 82 173 196v258h78v-2c32 16 51 47 51 87h62z" />
    <glyph glyph-name="uni1EED" unicode="&#x1eed;" horiz-adv-x="647" 
d="M318 711c-29 0 -47 -17 -50 -44l-41 15c7 45 43 73 91 73c53 0 87 -35 87 -82c0 -39 -20 -66 -55 -93l-41 14c33 26 53 48 53 77c0 22 -15 40 -44 40zM665 611c-1 -74 -45 -130 -113 -149v-462h-78v119c-35 -82 -105 -121 -200 -122c-123 0 -197 78 -197 205v324h78v-304
c0 -94 55 -150 146 -150c109 2 173 82 173 196v258h78v-2c32 16 51 47 51 87h62z" />
    <glyph glyph-name="uni1EEF" unicode="&#x1eef;" horiz-adv-x="647" 
d="M266 685c-28 0 -43 -19 -43 -53h-52c0 73 29 112 83 112c55 0 82 -61 121 -61c28 0 43 19 43 53h52c0 -73 -29 -112 -83 -112c-58 0 -81 61 -121 61zM665 611c-1 -74 -45 -130 -113 -149v-462h-78v119c-35 -82 -105 -121 -200 -122c-123 0 -197 78 -197 205v324h78v-304
c0 -94 55 -150 146 -150c109 2 173 82 173 196v258h78v-2c32 16 51 47 51 87h62z" />
    <glyph glyph-name="uhungarumlaut" unicode="&#x171;" horiz-adv-x="647" 
d="M346 719l-92 -106h-65l91 139zM401 613h-65l91 139l66 -33zM474 526h78v-526h-78v119c-35 -82 -105 -121 -200 -122c-123 0 -197 78 -197 205v324h78v-304c0 -94 55 -150 146 -150c109 2 173 82 173 196v258z" />
    <glyph glyph-name="uni0217" unicode="&#x217;" horiz-adv-x="647" 
d="M317 685c-40 0 -70 -31 -72 -73h-55c3 76 56 129 127 129s124 -53 127 -129h-55c-2 42 -32 73 -72 73zM474 526h78v-526h-78v119c-35 -82 -105 -121 -200 -122c-123 0 -197 78 -197 205v324h78v-304c0 -94 55 -150 146 -150c109 2 173 82 173 196v258z" />
    <glyph glyph-name="umacron" unicode="&#x16b;" horiz-adv-x="647" 
d="M438 706v-59h-241v59h241zM474 526h78v-526h-78v119c-35 -82 -105 -121 -200 -122c-123 0 -197 78 -197 205v324h78v-304c0 -94 55 -150 146 -150c109 2 173 82 173 196v258z" />
    <glyph glyph-name="uni1E7B" unicode="&#x1e7b;" horiz-adv-x="647" 
d="M233 770c-27 0 -47 22 -47 49c0 29 20 50 47 50s48 -21 48 -50c0 -27 -21 -49 -48 -49zM400 770c-27 0 -48 22 -48 49c0 29 21 50 48 50c26 0 47 -21 47 -50c0 -27 -21 -49 -47 -49zM196 627v59h241v-59h-241zM474 526h78v-526h-78v119c-35 -82 -105 -121 -200 -122
c-123 0 -197 78 -197 205v324h78v-304c0 -94 55 -150 146 -150c109 2 173 82 173 196v258z" />
    <glyph glyph-name="uogonek" unicode="&#x173;" horiz-adv-x="644" 
d="M538 0c-45 -55 -57 -91 -57 -115c0 -26 15 -38 35 -38s37 13 54 33l26 -30c-23 -31 -54 -50 -88 -50c-35 0 -72 22 -72 73c0 35 17 73 58 129h-18v114c-36 -78 -104 -118 -202 -118c-125 0 -197 77 -197 204v324h78v-304c0 -95 57 -150 148 -150c99 2 164 70 173 171v283
h77v-526h-15z" />
    <glyph glyph-name="uring" unicode="&#x16f;" horiz-adv-x="647" 
d="M317 565c-63 0 -115 52 -115 113s52 114 115 114s116 -53 116 -114s-53 -113 -116 -113zM317 752c-42 0 -77 -34 -77 -74s35 -73 77 -73s78 33 78 73s-36 74 -78 74zM474 526h78v-526h-78v119c-35 -82 -105 -121 -200 -122c-123 0 -197 78 -197 205v324h78v-304
c0 -94 55 -150 146 -150c109 2 173 82 173 196v258z" />
    <glyph glyph-name="utilde" unicode="&#x169;" horiz-adv-x="647" 
d="M263 685c-28 0 -43 -19 -43 -53h-52c0 73 29 112 83 112c55 0 82 -61 121 -61c28 0 43 19 43 53h52c0 -73 -29 -112 -83 -112c-58 0 -81 61 -121 61zM474 526h78v-526h-78v119c-35 -82 -105 -121 -200 -122c-123 0 -197 78 -197 205v324h78v-304c0 -94 55 -150 146 -150
c109 2 173 82 173 196v258z" />
    <glyph glyph-name="uni1E79" unicode="&#x1e79;" horiz-adv-x="647" 
d="M469 891l-124 -99h-75l120 135zM263 685c-28 0 -43 -19 -43 -53h-52c0 73 29 112 83 112c55 0 82 -61 121 -61c28 0 43 19 43 53h52c0 -73 -29 -112 -83 -112c-58 0 -81 61 -121 61zM474 526h78v-526h-78v119c-35 -82 -105 -121 -200 -122c-123 0 -197 78 -197 205v324
h78v-304c0 -94 55 -150 146 -150c109 2 173 82 173 196v258z" />
    <glyph glyph-name="v" unicode="v" horiz-adv-x="498" 
d="M4 526h83l168 -447l167 447h79l-207 -526h-81z" />
    <glyph glyph-name="w" unicode="w" horiz-adv-x="965" 
d="M890 210c0 -129 -84 -213 -210 -213c-89 0 -167 47 -197 119c-28 -72 -107 -119 -196 -119c-127 0 -211 84 -211 213v316h78v-313c0 -86 57 -141 144 -141c89 0 146 55 146 141v313h78v-313c0 -86 59 -141 147 -141c86 0 143 55 143 141v313h78v-316z" />
    <glyph glyph-name="wacute" unicode="&#x1e83;" horiz-adv-x="965" 
d="M550 750l79 -36l-124 -99h-75zM890 210c0 -129 -84 -213 -210 -213c-89 0 -167 47 -197 119c-28 -72 -107 -119 -196 -119c-127 0 -211 84 -211 213v316h78v-313c0 -86 57 -141 144 -141c89 0 146 55 146 141v313h78v-313c0 -86 59 -141 147 -141c86 0 143 55 143 141
v313h78v-316z" />
    <glyph glyph-name="wcircumflex" unicode="&#x175;" horiz-adv-x="965" 
d="M445 745h76l102 -129h-68l-72 91l-72 -91h-68zM890 210c0 -129 -84 -213 -210 -213c-89 0 -167 47 -197 119c-28 -72 -107 -119 -196 -119c-127 0 -211 84 -211 213v316h78v-313c0 -86 57 -141 144 -141c89 0 146 55 146 141v313h78v-313c0 -86 59 -141 147 -141
c86 0 143 55 143 141v313h78v-316z" />
    <glyph glyph-name="wdieresis" unicode="&#x1e85;" horiz-adv-x="965" 
d="M400 727c27 0 48 -21 48 -50c0 -27 -21 -49 -48 -49s-47 22 -47 49c0 29 20 50 47 50zM567 727c26 0 47 -21 47 -50c0 -27 -21 -49 -47 -49c-27 0 -48 22 -48 49c0 29 21 50 48 50zM890 210c0 -129 -84 -213 -210 -213c-89 0 -167 47 -197 119
c-28 -72 -107 -119 -196 -119c-127 0 -211 84 -211 213v316h78v-313c0 -86 57 -141 144 -141c89 0 146 55 146 141v313h78v-313c0 -86 59 -141 147 -141c86 0 143 55 143 141v313h78v-316z" />
    <glyph glyph-name="wgrave" unicode="&#x1e81;" horiz-adv-x="965" 
d="M413 750l120 -135h-75l-125 99zM890 210c0 -129 -84 -213 -210 -213c-89 0 -167 47 -197 119c-28 -72 -107 -119 -196 -119c-127 0 -211 84 -211 213v316h78v-313c0 -86 57 -141 144 -141c89 0 146 55 146 141v313h78v-313c0 -86 59 -141 147 -141c86 0 143 55 143 141
v313h78v-316z" />
    <glyph glyph-name="x" unicode="x" horiz-adv-x="529" 
d="M34 526h90l140 -201l142 201h86l-176 -255l189 -271h-91l-150 216l-155 -216h-88l192 271z" />
    <glyph glyph-name="y" unicode="y" horiz-adv-x="642" 
d="M482 526h78v-468c0 -158 -97 -255 -255 -254c-79 2 -163 35 -216 86l24 57c48 -44 117 -73 185 -76c115 0 184 70 184 188v97c-35 -73 -100 -111 -193 -112c-132 0 -212 78 -212 205v277h78v-257c0 -94 56 -150 150 -150c112 2 177 78 177 202v205z" />
    <glyph glyph-name="yacute" unicode="&#xfd;" horiz-adv-x="642" 
d="M464 714l-124 -99h-75l120 135zM482 526h78v-468c0 -158 -97 -255 -255 -254c-79 2 -163 35 -216 86l24 57c48 -44 117 -73 185 -76c115 0 184 70 184 188v97c-35 -73 -100 -111 -193 -112c-132 0 -212 78 -212 205v277h78v-257c0 -94 56 -150 150 -150
c112 2 177 78 177 202v205z" />
    <glyph glyph-name="ycircumflex" unicode="&#x177;" horiz-adv-x="642" 
d="M318 707l-72 -91h-68l102 129h76l102 -129h-68zM482 526h78v-468c0 -158 -97 -255 -255 -254c-79 2 -163 35 -216 86l24 57c48 -44 117 -73 185 -76c115 0 184 70 184 188v97c-35 -73 -100 -111 -193 -112c-132 0 -212 78 -212 205v277h78v-257c0 -94 56 -150 150 -150
c112 2 177 78 177 202v205z" />
    <glyph glyph-name="ydieresis" unicode="&#xff;" horiz-adv-x="642" 
d="M235 628c-27 0 -47 22 -47 49c0 29 20 50 47 50s48 -21 48 -50c0 -27 -21 -49 -48 -49zM402 628c-27 0 -48 22 -48 49c0 29 21 50 48 50c26 0 47 -21 47 -50c0 -27 -21 -49 -47 -49zM482 526h78v-468c0 -158 -97 -255 -255 -254c-79 2 -163 35 -216 86l24 57
c48 -44 117 -73 185 -76c115 0 184 70 184 188v97c-35 -73 -100 -111 -193 -112c-132 0 -212 78 -212 205v277h78v-257c0 -94 56 -150 150 -150c112 2 177 78 177 202v205z" />
    <glyph glyph-name="uni1E8F" unicode="&#x1e8f;" horiz-adv-x="642" 
d="M318 624c-29 0 -51 23 -51 53c0 31 22 53 51 53s51 -22 51 -53c0 -30 -22 -53 -51 -53zM482 526h78v-468c0 -158 -97 -255 -255 -254c-79 2 -163 35 -216 86l24 57c48 -44 117 -73 185 -76c115 0 184 70 184 188v97c-35 -73 -100 -111 -193 -112c-132 0 -212 78 -212 205
v277h78v-257c0 -94 56 -150 150 -150c112 2 177 78 177 202v205z" />
    <glyph glyph-name="uni1EF5" unicode="&#x1ef5;" horiz-adv-x="642" 
d="M482 321v205h78v-468c0 -158 -97 -255 -255 -254c-79 2 -163 35 -216 86l24 57c48 -44 117 -73 185 -76c115 0 184 70 184 188v97c-35 -73 -100 -111 -193 -112c-132 0 -212 78 -212 205v277h78v-257c0 -94 56 -150 150 -150c112 2 177 78 177 202zM627 -55
c29 0 51 -23 51 -53s-22 -54 -51 -54s-51 24 -51 54s22 53 51 53z" />
    <glyph glyph-name="uni1EF5.ss01" horiz-adv-x="642" 
d="M482 321v205h78v-468c0 -158 -97 -255 -255 -254c-79 2 -163 35 -216 86l24 57c48 -44 117 -73 185 -76c115 0 184 70 184 188v97c-35 -73 -100 -111 -193 -112c-132 0 -212 78 -212 205v277h78v-257c0 -94 56 -150 150 -150c112 2 177 78 177 202zM627 -55
c29 0 51 -23 51 -53s-22 -54 -51 -54s-51 24 -51 54s22 53 51 53z" />
    <glyph glyph-name="ygrave" unicode="&#x1ef3;" horiz-adv-x="642" 
d="M368 615h-75l-125 99l80 36zM482 526h78v-468c0 -158 -97 -255 -255 -254c-79 2 -163 35 -216 86l24 57c48 -44 117 -73 185 -76c115 0 184 70 184 188v97c-35 -73 -100 -111 -193 -112c-132 0 -212 78 -212 205v277h78v-257c0 -94 56 -150 150 -150
c112 2 177 78 177 202v205z" />
    <glyph glyph-name="uni1EF7" unicode="&#x1ef7;" horiz-adv-x="642" 
d="M316 711c-29 0 -47 -17 -50 -44l-41 15c7 45 43 73 91 73c53 0 87 -35 87 -82c0 -39 -20 -66 -55 -93l-41 14c33 26 53 48 53 77c0 22 -15 40 -44 40zM482 526h78v-468c0 -158 -97 -255 -255 -254c-79 2 -163 35 -216 86l24 57c48 -44 117 -73 185 -76
c115 0 184 70 184 188v97c-35 -73 -100 -111 -193 -112c-132 0 -212 78 -212 205v277h78v-257c0 -94 56 -150 150 -150c112 2 177 78 177 202v205z" />
    <glyph glyph-name="uni1EF7.ss01" horiz-adv-x="642" 
d="M316 711c-29 0 -47 -17 -50 -44l-41 15c7 45 43 73 91 73c53 0 87 -35 87 -82c0 -39 -20 -66 -55 -93l-41 14c33 26 53 48 53 77c0 22 -15 40 -44 40zM482 526h78v-468c0 -158 -97 -255 -255 -254c-79 2 -163 35 -216 86l24 57c48 -44 117 -73 185 -76
c115 0 184 70 184 188v97c-35 -73 -100 -111 -193 -112c-132 0 -212 78 -212 205v277h78v-257c0 -94 56 -150 150 -150c112 2 177 78 177 202v205z" />
    <glyph glyph-name="uni0233" unicode="&#x233;" horiz-adv-x="642" 
d="M438 686v-59h-241v59h241zM482 526h78v-468c0 -158 -97 -255 -255 -254c-79 2 -163 35 -216 86l24 57c48 -44 117 -73 185 -76c115 0 184 70 184 188v97c-35 -73 -100 -111 -193 -112c-132 0 -212 78 -212 205v277h78v-257c0 -94 56 -150 150 -150c112 2 177 78 177 202
v205z" />
    <glyph glyph-name="uni0233.ss01" horiz-adv-x="642" 
d="M438 686v-59h-241v59h241zM482 526h78v-468c0 -158 -97 -255 -255 -254c-79 2 -163 35 -216 86l24 57c48 -44 117 -73 185 -76c115 0 184 70 184 188v97c-35 -73 -100 -111 -193 -112c-132 0 -212 78 -212 205v277h78v-257c0 -94 56 -150 150 -150c112 2 177 78 177 202
v205z" />
    <glyph glyph-name="uni1EF9" unicode="&#x1ef9;" horiz-adv-x="642" 
d="M264 685c-28 0 -43 -19 -43 -53h-52c0 73 29 112 83 112c55 0 82 -61 121 -61c28 0 43 19 43 53h52c0 -73 -29 -112 -83 -112c-58 0 -81 61 -121 61zM482 526h78v-468c0 -158 -97 -255 -255 -254c-79 2 -163 35 -216 86l24 57c48 -44 117 -73 185 -76
c115 0 184 70 184 188v97c-35 -73 -100 -111 -193 -112c-132 0 -212 78 -212 205v277h78v-257c0 -94 56 -150 150 -150c112 2 177 78 177 202v205z" />
    <glyph glyph-name="uni1EF9.ss01" horiz-adv-x="642" 
d="M264 685c-28 0 -43 -19 -43 -53h-52c0 73 29 112 83 112c55 0 82 -61 121 -61c28 0 43 19 43 53h52c0 -73 -29 -112 -83 -112c-58 0 -81 61 -121 61zM482 526h78v-468c0 -158 -97 -255 -255 -254c-79 2 -163 35 -216 86l24 57c48 -44 117 -73 185 -76
c115 0 184 70 184 188v97c-35 -73 -100 -111 -193 -112c-132 0 -212 78 -212 205v277h78v-257c0 -94 56 -150 150 -150c112 2 177 78 177 202v205z" />
    <glyph glyph-name="z" unicode="z" horiz-adv-x="527" 
d="M146 65h338v-66l-432 1v58l145 177h-107v64h159l132 161l-320 1v65l415 -1v-57l-142 -173h106v-64h-158z" />
    </font>
</defs>
</svg>
